  0
SECTION
  2
HEADER
  9
$ACADVER
  1
AC1014
  9
$ACADMAINTVER
 70
     9
  9
$DWGCODEPAGE
  3
ANSI_932
  9
$INSBASE
 10
0.0
 20
0.0
 30
0.0
  9
$EXTMIN
 10
34.98872743391904
 20
22.08413107043609
 30
0.0
  9
$EXTMAX
 10
1204.456757312054
 20
595.966486111279
 30
0.0
  9
$LIMMIN
 10
0.0
 20
0.0
  9
$LIMMAX
 10
297.0
 20
210.0
  9
$ORTHOMODE
 70
     1
  9
$REGENMODE
 70
     1
  9
$FILLMODE
 70
     1
  9
$QTEXTMODE
 70
     0
  9
$MIRRTEXT
 70
     0
  9
$DRAGMODE
 70
     2
  9
$LTSCALE
 40
3.0
  9
$OSMODE
 70
    37
  9
$ATTMODE
 70
     1
  9
$TEXTSIZE
 40
2.0
  9
$TRACEWID
 40
1.0
  9
$TEXTSTYLE
  7
STANDARD
  9
$CLAYER
  8
0
  9
$CELTYPE
  6
BYLAYER
  9
$CECOLOR
 62
   256
  9
$CELTSCALE
 40
1.0
  9
$DELOBJ
 70
     1
  9
$DISPSILH
 70
     0
  9
$DIMSCALE
 40
3.0
  9
$DIMASZ
 40
1.8
  9
$DIMEXO
 40
0.625
  9
$DIMDLI
 40
3.75
  9
$DIMRND
 40
0.0
  9
$DIMDLE
 40
0.0
  9
$DIMEXE
 40
0.8
  9
$DIMTP
 40
0.0
  9
$DIMTM
 40
0.0
  9
$DIMTXT
 40
1.8
  9
$DIMCEN
 40
2.5
  9
$DIMTSZ
 40
0.0
  9
$DIMTOL
 70
     0
  9
$DIMLIM
 70
     0
  9
$DIMTIH
 70
     0
  9
$DIMTOH
 70
     0
  9
$DIMSE1
 70
     0
  9
$DIMSE2
 70
     0
  9
$DIMTAD
 70
     1
  9
$DIMZIN
 70
     8
  9
$DIMBLK
  1

  9
$DIMASO
 70
     1
  9
$DIMSHO
 70
     1
  9
$DIMPOST
  1

  9
$DIMAPOST
  1

  9
$DIMALT
 70
     0
  9
$DIMALTD
 70
     4
  9
$DIMALTF
 40
0.0394
  9
$DIMLFAC
 40
1.0
  9
$DIMTOFL
 70
     1
  9
$DIMTVP
 40
0.0
  9
$DIMTIX
 70
     0
  9
$DIMSOXD
 70
     0
  9
$DIMSAH
 70
     0
  9
$DIMBLK1
  1

  9
$DIMBLK2
  1

  9
$DIMSTYLE
  2
STANDARD
  9
$DIMCLRD
 70
     0
  9
$DIMCLRE
 70
     0
  9
$DIMCLRT
 70
     0
  9
$DIMTFAC
 40
1.0
  9
$DIMGAP
 40
0.75
  9
$DIMJUST
 70
     0
  9
$DIMSD1
 70
     0
  9
$DIMSD2
 70
     0
  9
$DIMTOLJ
 70
     1
  9
$DIMTZIN
 70
     0
  9
$DIMALTZ
 70
     0
  9
$DIMALTTZ
 70
     0
  9
$DIMFIT
 70
     3
  9
$DIMUPT
 70
     0
  9
$DIMUNIT
 70
     8
  9
$DIMDEC
 70
     2
  9
$DIMTDEC
 70
     2
  9
$DIMALTU
 70
     8
  9
$DIMALTTD
 70
     4
  9
$DIMTXSTY
  7
STANDARD
  9
$DIMAUNIT
 70
     0
  9
$LUNITS
 70
     2
  9
$LUPREC
 70
     3
  9
$SKETCHINC
 40
1.0
  9
$FILLETRAD
 40
10.0
  9
$AUNITS
 70
     0
  9
$AUPREC
 70
     2
  9
$MENU
  1
.
  9
$ELEVATION
 40
0.0
  9
$PELEVATION
 40
0.0
  9
$THICKNESS
 40
0.0
  9
$LIMCHECK
 70
     0
  9
$BLIPMODE
 70
     0
  9
$CHAMFERA
 40
0.0
  9
$CHAMFERB
 40
0.0
  9
$CHAMFERC
 40
20.0
  9
$CHAMFERD
 40
0.0
  9
$SKPOLY
 70
     0
  9
$TDCREATE
 40
2453753.551250000
  9
$TDUPDATE
 40
2453832.475540717
  9
$TDINDWG
 40
0.1888255787
  9
$TDUSRTIMER
 40
0.1888255787
  9
$USRTIMER
 70
     1
  9
$ANGBASE
 50
0.0
  9
$ANGDIR
 70
     0
  9
$PDMODE
 70
     0
  9
$PDSIZE
 40
-10.0
  9
$PLINEWID
 40
0.0
  9
$COORDS
 70
     0
  9
$SPLFRAME
 70
     0
  9
$SPLINETYPE
 70
     6
  9
$SPLINESEGS
 70
     8
  9
$ATTDIA
 70
     0
  9
$ATTREQ
 70
     1
  9
$HANDLING
 70
-16383
  9
$HANDSEED
  5
24AF
  9
$SURFTAB1
 70
     6
  9
$SURFTAB2
 70
     6
  9
$SURFTYPE
 70
     6
  9
$SURFU
 70
     6
  9
$SURFV
 70
     6
  9
$UCSNAME
  2

  9
$UCSORG
 10
0.0
 20
0.0
 30
0.0
  9
$UCSXDIR
 10
1.0
 20
0.0
 30
0.0
  9
$UCSYDIR
 10
0.0
 20
1.0
 30
0.0
  9
$PUCSNAME
  2

  9
$PUCSORG
 10
0.0
 20
0.0
 30
0.0
  9
$PUCSXDIR
 10
1.0
 20
0.0
 30
0.0
  9
$PUCSYDIR
 10
0.0
 20
1.0
 30
0.0
  9
$USERI1
 70
     0
  9
$USERI2
 70
     0
  9
$USERI3
 70
     0
  9
$USERI4
 70
     0
  9
$USERI5
 70
     0
  9
$USERR1
 40
0.0
  9
$USERR2
 40
0.0
  9
$USERR3
 40
0.0
  9
$USERR4
 40
0.0
  9
$USERR5
 40
0.0
  9
$WORLDVIEW
 70
     1
  9
$SHADEDGE
 70
     3
  9
$SHADEDIF
 70
    70
  9
$TILEMODE
 70
     1
  9
$MAXACTVP
 70
    48
  9
$PINSBASE
 10
0.0
 20
0.0
 30
0.0
  9
$PLIMCHECK
 70
     0
  9
$PEXTMIN
 10
0.0
 20
0.0
 30
0.0
  9
$PEXTMAX
 10
0.0
 20
0.0
 30
0.0
  9
$PLIMMIN
 10
0.0
 20
0.0
  9
$PLIMMAX
 10
12.0
 20
9.0
  9
$UNITMODE
 70
     0
  9
$VISRETAIN
 70
     1
  9
$PLINEGEN
 70
     0
  9
$PSLTSCALE
 70
     1
  9
$TREEDEPTH
 70
  3020
  9
$PICKSTYLE
 70
     1
  9
$CMLSTYLE
  2
STANDARD
  9
$CMLJUST
 70
     0
  9
$CMLSCALE
 40
1.0
  9
$PROXYGRAPHICS
 70
     1
  9
$MEASUREMENT
 70
     0
  0
ENDSEC
  0
SECTION
  2
CLASSES
  0
CLASS
  1
DICTIONARYVAR
  2
AcDbDictionaryVar
  3
AutoCAD 2000
 90
        0
280
     0
281
     0
  0
CLASS
  1
ACDBDICTIONARYWDFLT
  2
AcDbDictionaryWithDefault
  3
AutoCAD 2000
 90
        0
280
     0
281
     0
  0
CLASS
  1
ACDBPLACEHOLDER
  2
AcDbPlaceHolder
  3
AutoCAD 2000
 90
        0
280
     0
281
     0
  0
CLASS
  1
LAYOUT
  2
AcDbLayout
  3
AutoCAD 2000
 90
        0
280
     0
281
     0
  0
CLASS
  1
LONG_TRANSACTION
  2
AcDbLongTransaction
  3
AutoCAD 2000
 90
        0
280
     0
281
     0
  0
CLASS
  1
LWPOLYLINE
  2
AcDbPolyline
  3
AutoCAD 2000
 90
        0
280
     0
281
     1
  0
CLASS
  1
HATCH
  2
AcDbHatch
  3
AutoCAD 2000
 90
        0
280
     0
281
     1
  0
CLASS
  1
XRECORD
  2
AcDbXrecord
  3
AutoCAD 2000
 90
        0
280
     0
281
     0
  0
ENDSEC
  0
SECTION
  2
TABLES
  0
TABLE
  2
VPORT
  5
6E
330
0
100
AcDbSymbolTable
 70
     2
  0
VPORT
  5
2484
330
6E
100
AcDbSymbolTableRecord
100
AcDbViewportTableRecord
  2
*ACTIVE
 70
     0
 10
0.0
 20
0.0
 11
1.0
 21
1.0
 12
619.7339518747281
 22
309.0321226394627
 13
0.0
 23
0.0
 14
10.0
 24
10.0
 15
10.0
 25
10.0
 16
0.0
 26
0.0
 36
1.0
 17
0.0
 27
0.0
 37
0.0
 40
750.0684961522071
 41
1.566970091027308
 42
50.0
 43
0.0
 44
0.0
 50
0.0
 51
0.0
 71
     0
 72
   100
 73
     1
 74
     3
 75
     0
 76
     0
 77
     0
 78
     0
  0
ENDTAB
  0
TABLE
  2
LTYPE
  5
69
330
0
100
AcDbSymbolTable
 70
     3
  0
LTYPE
  5
6A
330
69
100
AcDbSymbolTableRecord
100
AcDbLinetypeTableRecord
  2
BYBLOCK
 70
     0
  3

 72
    65
 73
     0
 40
0.0
  0
LTYPE
  5
6B
330
69
100
AcDbSymbolTableRecord
100
AcDbLinetypeTableRecord
  2
BYLAYER
 70
     0
  3

 72
    65
 73
     0
 40
0.0
  0
LTYPE
  5
8
330
69
100
AcDbSymbolTableRecord
100
AcDbLinetypeTableRecord
  2
CONTINUOUS
 70
     0
  3
Solid line
 72
    65
 73
     0
 40
0.0
  0
LTYPE
  5
27C
330
69
100
AcDbSymbolTableRecord
100
AcDbLinetypeTableRecord
  2
SEKKEI_A2_
 70
     0
  3
center(A2)  ____ _ ____ _ ____ _ ____ _ ____ _ 
 72
    65
 73
     4
 40
14.28749999999999
 49
9.525
 74
     0
 49
-1.587499999999999
 74
     0
 49
1.587499999999999
 74
     0
 49
-1.587499999999999
 74
     0
  0
LTYPE
  5
2B4
330
69
100
AcDbSymbolTableRecord
100
AcDbLinetypeTableRecord
  2
HIDDEN2
 70
     0
  3
Hidden (.5x) _ _ _ _ _ _ _ _ _ _ _ _ _ _ _ _ _
 72
    65
 73
     2
 40
4.762499999999999
 49
3.174999999999999
 74
     0
 49
-1.587499999999999
 74
     0
  0
ENDTAB
  0
TABLE
  2
LAYER
  5
66
330
0
100
AcDbSymbolTable
 70
     9
  0
LAYER
  5
5E
330
66
100
AcDbSymbolTableRecord
100
AcDbLayerTableRecord
  2
0
 70
     0
 62
     7
  6
CONTINUOUS
  0
LAYER
  5
3E
330
66
100
AcDbSymbolTableRecord
100
AcDbLayerTableRecord
  2
CENTER
 70
     0
 62
     3
  6
SEKKEI_A2_
  0
LAYER
  5
135
330
66
100
AcDbSymbolTableRecord
100
AcDbLayerTableRecord
  2
DEFPOINTS
 70
     0
 62
     7
  6
CONTINUOUS
  0
LAYER
  5
2B5
330
66
100
AcDbSymbolTableRecord
100
AcDbLayerTableRecord
  2
HIDS
 70
     0
 62
     1
  6
HIDDEN2
  0
LAYER
  5
2BA
330
66
100
AcDbSymbolTableRecord
100
AcDbLayerTableRecord
  2
HOJO
 70
     0
 62
     4
  6
CONTINUOUS
  0
LAYER
  5
2BF
330
66
100
AcDbSymbolTableRecord
100
AcDbLayerTableRecord
  2
SUNPO
 70
     0
 62
     4
  6
CONTINUOUS
  0
LAYER
  5
3FA
330
66
100
AcDbSymbolTableRecord
100
AcDbLayerTableRecord
  2
TITLE
 70
     0
 62
     4
  6
CONTINUOUS
  0
ENDTAB
  0
TABLE
  2
STYLE
  5
67
330
0
100
AcDbSymbolTable
 70
     1
  0
STYLE
  5
16
330
67
100
AcDbSymbolTableRecord
100
AcDbTextStyleTableRecord
  2
STANDARD
 70
     0
 40
0.0
 41
1.0
 50
0.0
 71
     0
 42
2.0
  3
simplex.shx
  4
extfont.shx
  0
ENDTAB
  0
TABLE
  2
VIEW
  5
6C
330
0
100
AcDbSymbolTable
 70
     0
  0
ENDTAB
  0
TABLE
  2
UCS
  5
6D
330
0
100
AcDbSymbolTable
 70
     0
  0
ENDTAB
  0
TABLE
  2
APPID
  5
70
330
0
100
AcDbSymbolTable
 70
     1
  0
APPID
  5
71
330
70
100
AcDbSymbolTableRecord
100
AcDbRegAppTableRecord
  2
ACAD
 70
     0
  0
ENDTAB
  0
TABLE
  2
DIMSTYLE
  5
72
330
0
100
AcDbSymbolTable
 70
     2
  0
DIMSTYLE
105
73
102
{ACAD_REACTORS
330
C95
330
C96
330
C97
330
C98
330
C9E
330
C9F
330
CA0
330
CA1
330
CA2
330
CA3
330
CAB
330
CCD
330
CD7
330
CD8
330
D05
330
D8B
330
D8C
330
D8D
330
D8E
330
DAC
330
DB7
330
15A9
330
15CF
330
2330
330
2322
330
2321
102
}
330
72
100
AcDbSymbolTableRecord
100
AcDbDimStyleTableRecord
  2
STANDARD
 70
     0
  3

  4

  5

  6

  7

 40
3.0
 41
1.8
 42
0.625
 43
3.75
 44
0.8
 45
0.0
 46
0.0
 47
0.0
 48
0.0
140
1.8
141
2.5
142
0.0
143
0.0394
144
1.0
145
0.0
146
1.0
147
0.75
 71
     0
 72
     0
 73
     0
 74
     0
 75
     0
 76
     0
 77
     1
 78
     8
170
     0
171
     4
172
     1
173
     0
174
     0
175
     0
176
     0
177
     0
178
     0
270
     8
271
     2
272
     2
273
     8
274
     4
340
16
275
     0
280
     0
281
     0
282
     0
283
     1
284
     0
285
     0
286
     0
287
     3
288
     0
  0
ENDTAB
  0
TABLE
  2
BLOCK_RECORD
  5
1
330
0
100
AcDbSymbolTable
 70
    84
  0
BLOCK_RECORD
  5
2
102
{ACAD_XDICTIONARY
360
24A6
102
}
330
1
100
AcDbSymbolTableRecord
100
AcDbBlockTableRecord
  2
*MODEL_SPACE
  0
BLOCK_RECORD
  5
247F
102
{ACAD_XDICTIONARY
360
24AD
102
}
330
1
100
AcDbSymbolTableRecord
100
AcDbBlockTableRecord
  2
*PAPER_SPACE
  0
BLOCK_RECORD
  5
DC1
330
1
100
AcDbSymbolTableRecord
100
AcDbBlockTableRecord
  2
*D2
  0
BLOCK_RECORD
  5
DCD
330
1
100
AcDbSymbolTableRecord
100
AcDbBlockTableRecord
  2
*D3
  0
BLOCK_RECORD
  5
DD9
330
1
100
AcDbSymbolTableRecord
100
AcDbBlockTableRecord
  2
*D4
  0
BLOCK_RECORD
  5
DE5
330
1
100
AcDbSymbolTableRecord
100
AcDbBlockTableRecord
  2
*D5
  0
BLOCK_RECORD
  5
DF1
330
1
100
AcDbSymbolTableRecord
100
AcDbBlockTableRecord
  2
*D6
  0
BLOCK_RECORD
  5
DFD
330
1
100
AcDbSymbolTableRecord
100
AcDbBlockTableRecord
  2
*D7
  0
BLOCK_RECORD
  5
E09
330
1
100
AcDbSymbolTableRecord
100
AcDbBlockTableRecord
  2
*D8
  0
BLOCK_RECORD
  5
E15
330
1
100
AcDbSymbolTableRecord
100
AcDbBlockTableRecord
  2
*D9
  0
BLOCK_RECORD
  5
E21
330
1
100
AcDbSymbolTableRecord
100
AcDbBlockTableRecord
  2
*D10
  0
BLOCK_RECORD
  5
E2D
330
1
100
AcDbSymbolTableRecord
100
AcDbBlockTableRecord
  2
*D11
  0
BLOCK_RECORD
  5
E39
330
1
100
AcDbSymbolTableRecord
100
AcDbBlockTableRecord
  2
*D12
  0
BLOCK_RECORD
  5
E45
330
1
100
AcDbSymbolTableRecord
100
AcDbBlockTableRecord
  2
*D13
  0
BLOCK_RECORD
  5
E51
330
1
100
AcDbSymbolTableRecord
100
AcDbBlockTableRecord
  2
*D14
  0
BLOCK_RECORD
  5
E5D
330
1
100
AcDbSymbolTableRecord
100
AcDbBlockTableRecord
  2
*D15
  0
BLOCK_RECORD
  5
E69
330
1
100
AcDbSymbolTableRecord
100
AcDbBlockTableRecord
  2
*D16
  0
BLOCK_RECORD
  5
E75
330
1
100
AcDbSymbolTableRecord
100
AcDbBlockTableRecord
  2
*D17
  0
BLOCK_RECORD
  5
E81
330
1
100
AcDbSymbolTableRecord
100
AcDbBlockTableRecord
  2
*D18
  0
BLOCK_RECORD
  5
E8D
330
1
100
AcDbSymbolTableRecord
100
AcDbBlockTableRecord
  2
*D19
  0
BLOCK_RECORD
  5
E99
330
1
100
AcDbSymbolTableRecord
100
AcDbBlockTableRecord
  2
*D20
  0
BLOCK_RECORD
  5
EA7
330
1
100
AcDbSymbolTableRecord
100
AcDbBlockTableRecord
  2
*D21
  0
BLOCK_RECORD
  5
EB3
330
1
100
AcDbSymbolTableRecord
100
AcDbBlockTableRecord
  2
*D22
  0
BLOCK_RECORD
  5
15AA
330
1
100
AcDbSymbolTableRecord
100
AcDbBlockTableRecord
  2
*D25
  0
BLOCK_RECORD
  5
15D0
330
1
100
AcDbSymbolTableRecord
100
AcDbBlockTableRecord
  2
*D26
  0
BLOCK_RECORD
  5
2346
330
1
100
AcDbSymbolTableRecord
100
AcDbBlockTableRecord
  2
*D79
  0
BLOCK_RECORD
  5
2352
330
1
100
AcDbSymbolTableRecord
100
AcDbBlockTableRecord
  2
*D80
  0
BLOCK_RECORD
  5
235E
330
1
100
AcDbSymbolTableRecord
100
AcDbBlockTableRecord
  2
*D81
  0
ENDTAB
  0
ENDSEC
  0
SECTION
  2
BLOCKS
  0
BLOCK
  5
5D
330
2
100
AcDbEntity
  8
0
100
AcDbBlockBegin
  2
*MODEL_SPACE
 70
     0
 10
0.0
 20
0.0
 30
0.0
  3
*MODEL_SPACE
  1

  0
ENDBLK
  5
5F
330
2
100
AcDbEntity
  8
0
100
AcDbBlockEnd
  0
BLOCK
  5
2481
330
247F
100
AcDbEntity
 67
     1
  8
0
100
AcDbBlockBegin
  2
*PAPER_SPACE
 70
     0
 10
0.0
 20
0.0
 30
0.0
  3
*PAPER_SPACE
  1

  0
ENDBLK
  5
2482
330
247F
100
AcDbEntity
 67
     1
  8
0
100
AcDbBlockEnd
  0
BLOCK
  5
DCB
330
DC1
100
AcDbEntity
  8
0
100
AcDbBlockBegin
  2
*D2
 70
     1
 10
0.0
 20
0.0
 30
0.0
  3
*D2
  1

  0
LINE
  5
1510
330
DC1
100
AcDbEntity
  8
SUNPO
 62
     0
100
AcDbLine
 10
595.8034981110637
 20
284.7835631112788
 30
0.0
 11
595.8034981110637
 21
311.3117371449819
 31
0.0
  0
LINE
  5
1511
330
DC1
100
AcDbEntity
  8
SUNPO
 62
     0
100
AcDbLine
 10
715.8035061110637
 20
225.7835631112789
 30
0.0
 11
715.8035061110637
 21
311.3117371449819
 31
0.0
  0
LINE
  5
1512
330
DC1
100
AcDbEntity
  8
SUNPO
 62
     0
100
AcDbLine
 10
601.2034981110637
 20
308.911737144982
 30
0.0
 11
710.4035061110637
 21
308.911737144982
 31
0.0
  0
SOLID
  5
1513
330
DC1
100
AcDbEntity
  8
SUNPO
 62
     0
100
AcDbTrace
 10
601.2034981110637
 20
309.811737144982
 30
0.0
 11
601.2034981110637
 21
308.011737144982
 31
0.0
 12
595.8034981110637
 22
308.911737144982
 32
0.0
 13
595.8034981110637
 23
308.911737144982
 33
0.0
  0
SOLID
  5
1514
330
DC1
100
AcDbEntity
  8
SUNPO
 62
     0
100
AcDbTrace
 10
710.4035061110637
 20
309.811737144982
 30
0.0
 11
710.4035061110637
 21
308.011737144982
 31
0.0
 12
715.8035061110637
 22
308.911737144982
 32
0.0
 13
715.8035061110637
 23
308.911737144982
 33
0.0
  0
MTEXT
  5
1515
330
DC1
100
AcDbEntity
  8
SUNPO
 62
     0
100
AcDbMText
 10
655.8035021110637
 20
313.8617371449819
 30
0.0
 40
5.4
 41
0.0
 71
     5
 72
     1
  1
\A1;120
1001
ACAD
1000
MTEXTBEGIN
1070
    73
1070
     1
1070
    44
1040
1.0
1070
    74
1070
     0
1000
MTEXTEND
  0
POINT
  5
1516
330
DC1
100
AcDbEntity
  8
DEFPOINTS
 62
     0
100
AcDbPoint
 10
595.8034981110637
 20
282.9085631112789
 30
0.0
  0
POINT
  5
1517
330
DC1
100
AcDbEntity
  8
DEFPOINTS
 62
     0
100
AcDbPoint
 10
715.8035061110637
 20
223.9085631112789
 30
0.0
  0
POINT
  5
1518
330
DC1
100
AcDbEntity
  8
DEFPOINTS
 62
     0
100
AcDbPoint
 10
715.8035061110637
 20
308.911737144982
 30
0.0
  0
ENDBLK
  5
DCC
330
DC1
100
AcDbEntity
  8
0
100
AcDbBlockEnd
  0
BLOCK
  5
DD7
330
DCD
100
AcDbEntity
  8
0
100
AcDbBlockBegin
  2
*D3
 70
     1
 10
0.0
 20
0.0
 30
0.0
  3
*D3
  1

  0
LINE
  5
14F5
330
DCD
100
AcDbEntity
  8
SUNPO
 62
     0
100
AcDbLine
 10
535.8035021110636
 20
61.03355611127892
 30
0.0
 11
535.8035021110636
 21
40.08926256915194
 31
0.0
  0
LINE
  5
14F6
330
DCD
100
AcDbEntity
  8
SUNPO
 62
     0
100
AcDbLine
 10
655.8035061110636
 20
61.03355611127892
 30
0.0
 11
655.8035061110636
 21
40.08926256915194
 31
0.0
  0
LINE
  5
14F7
330
DCD
100
AcDbEntity
  8
SUNPO
 62
     0
100
AcDbLine
 10
541.2035021110637
 20
42.48926256915194
 30
0.0
 11
650.4035061110637
 21
42.48926256915194
 31
0.0
  0
SOLID
  5
14F8
330
DCD
100
AcDbEntity
  8
SUNPO
 62
     0
100
AcDbTrace
 10
541.2035021110637
 20
43.38926256915194
 30
0.0
 11
541.2035021110637
 21
41.58926256915195
 31
0.0
 12
535.8035021110636
 22
42.48926256915194
 32
0.0
 13
535.8035021110636
 23
42.48926256915194
 33
0.0
  0
SOLID
  5
14F9
330
DCD
100
AcDbEntity
  8
SUNPO
 62
     0
100
AcDbTrace
 10
650.4035061110637
 20
43.38926256915194
 30
0.0
 11
650.4035061110637
 21
41.58926256915195
 31
0.0
 12
655.8035061110636
 22
42.48926256915194
 32
0.0
 13
655.8035061110636
 23
42.48926256915194
 33
0.0
  0
MTEXT
  5
14FA
330
DCD
100
AcDbEntity
  8
SUNPO
 62
     0
100
AcDbMText
 10
595.8035041110637
 20
47.43926256915194
 30
0.0
 40
5.4
 41
0.0
 71
     5
 72
     1
  1
\A1;120
1001
ACAD
1000
MTEXTBEGIN
1070
    73
1070
     1
1070
    44
1040
1.0
1070
    74
1070
     0
1000
MTEXTEND
  0
POINT
  5
14FB
330
DCD
100
AcDbEntity
  8
DEFPOINTS
 62
     0
100
AcDbPoint
 10
535.8035021110636
 20
62.90855611127892
 30
0.0
  0
POINT
  5
14FC
330
DCD
100
AcDbEntity
  8
DEFPOINTS
 62
     0
100
AcDbPoint
 10
655.8035061110636
 20
62.90855611127892
 30
0.0
  0
POINT
  5
14FD
330
DCD
100
AcDbEntity
  8
DEFPOINTS
 62
     0
100
AcDbPoint
 10
655.8035061110636
 20
42.48926256915194
 30
0.0
  0
ENDBLK
  5
DD8
330
DCD
100
AcDbEntity
  8
0
100
AcDbBlockEnd
  0
BLOCK
  5
DE3
330
DD9
100
AcDbEntity
  8
0
100
AcDbBlockBegin
  2
*D4
 70
     1
 10
0.0
 20
0.0
 30
0.0
  3
*D4
  1

  0
LINE
  5
14FE
330
DD9
100
AcDbEntity
  8
SUNPO
 62
     0
100
AcDbLine
 10
520.8035011110637
 20
66.03355611127892
 30
0.0
 11
520.8035011110637
 21
22.08413107043609
 31
0.0
  0
LINE
  5
14FF
330
DD9
100
AcDbEntity
  8
SUNPO
 62
     0
100
AcDbLine
 10
670.8035061110637
 20
66.03355611127892
 30
0.0
 11
670.8035061110637
 21
22.08413107043609
 31
0.0
  0
LINE
  5
1500
330
DD9
100
AcDbEntity
  8
SUNPO
 62
     0
100
AcDbLine
 10
526.2035011110636
 20
24.48413107043609
 30
0.0
 11
665.4035061110637
 21
24.48413107043609
 31
0.0
  0
SOLID
  5
1501
330
DD9
100
AcDbEntity
  8
SUNPO
 62
     0
100
AcDbTrace
 10
526.2035011110636
 20
25.38413107043609
 30
0.0
 11
526.2035011110636
 21
23.58413107043609
 31
0.0
 12
520.8035011110637
 22
24.48413107043609
 32
0.0
 13
520.8035011110637
 23
24.48413107043609
 33
0.0
  0
SOLID
  5
1502
330
DD9
100
AcDbEntity
  8
SUNPO
 62
     0
100
AcDbTrace
 10
665.4035061110637
 20
25.38413107043609
 30
0.0
 11
665.4035061110637
 21
23.58413107043609
 31
0.0
 12
670.8035061110637
 22
24.48413107043609
 32
0.0
 13
670.8035061110637
 23
24.48413107043609
 33
0.0
  0
MTEXT
  5
1503
330
DD9
100
AcDbEntity
  8
SUNPO
 62
     0
100
AcDbMText
 10
595.8035036110636
 20
29.43413107043609
 30
0.0
 40
5.4
 41
0.0
 71
     5
 72
     1
  1
\A1;150
1001
ACAD
1000
MTEXTBEGIN
1070
    73
1070
     1
1070
    44
1040
1.0
1070
    74
1070
     0
1000
MTEXTEND
  0
POINT
  5
1504
330
DD9
100
AcDbEntity
  8
DEFPOINTS
 62
     0
100
AcDbPoint
 10
520.8035011110637
 20
67.90855611127892
 30
0.0
  0
POINT
  5
1505
330
DD9
100
AcDbEntity
  8
DEFPOINTS
 62
     0
100
AcDbPoint
 10
670.8035061110637
 20
67.90855611127892
 30
0.0
  0
POINT
  5
1506
330
DD9
100
AcDbEntity
  8
DEFPOINTS
 62
     0
100
AcDbPoint
 10
670.8035061110637
 20
24.48413107043609
 30
0.0
  0
ENDBLK
  5
DE4
330
DD9
100
AcDbEntity
  8
0
100
AcDbBlockEnd
  0
BLOCK
  5
DEF
330
DE5
100
AcDbEntity
  8
0
100
AcDbBlockBegin
  2
*D5
 70
     1
 10
0.0
 20
0.0
 30
0.0
  3
*D5
  1

  0
LINE
  5
1507
330
DE5
100
AcDbEntity
  8
SUNPO
 62
     0
100
AcDbLine
 10
520.8035011110637
 20
85.66573511127893
 30
0.0
 11
520.8035011110637
 21
329.2984654179682
 31
0.0
  0
LINE
  5
1508
330
DE5
100
AcDbEntity
  8
SUNPO
 62
     0
100
AcDbLine
 10
715.8035061110637
 20
225.7835631112789
 30
0.0
 11
715.8035061110637
 21
329.2984654179682
 31
0.0
  0
LINE
  5
1509
330
DE5
100
AcDbEntity
  8
SUNPO
 62
     0
100
AcDbLine
 10
526.2035011110636
 20
326.8984654179682
 30
0.0
 11
710.4035061110637
 21
326.8984654179682
 31
0.0
  0
SOLID
  5
150A
330
DE5
100
AcDbEntity
  8
SUNPO
 62
     0
100
AcDbTrace
 10
526.2035011110636
 20
327.7984654179682
 30
0.0
 11
526.2035011110636
 21
325.9984654179683
 31
0.0
 12
520.8035011110637
 22
326.8984654179682
 32
0.0
 13
520.8035011110637
 23
326.8984654179682
 33
0.0
  0
SOLID
  5
150B
330
DE5
100
AcDbEntity
  8
SUNPO
 62
     0
100
AcDbTrace
 10
710.4035061110637
 20
327.7984654179682
 30
0.0
 11
710.4035061110637
 21
325.9984654179683
 31
0.0
 12
715.8035061110637
 22
326.8984654179682
 32
0.0
 13
715.8035061110637
 23
326.8984654179682
 33
0.0
  0
MTEXT
  5
150C
330
DE5
100
AcDbEntity
  8
SUNPO
 62
     0
100
AcDbMText
 10
618.3035036110636
 20
331.8484654179682
 30
0.0
 40
5.4
 41
0.0
 71
     5
 72
     1
  1
\A1;195
1001
ACAD
1000
MTEXTBEGIN
1070
    73
1070
     1
1070
    44
1040
1.0
1070
    74
1070
     0
1000
MTEXTEND
  0
POINT
  5
150D
330
DE5
100
AcDbEntity
  8
DEFPOINTS
 62
     0
100
AcDbPoint
 10
520.8035011110637
 20
83.79073511127893
 30
0.0
  0
POINT
  5
150E
330
DE5
100
AcDbEntity
  8
DEFPOINTS
 62
     0
100
AcDbPoint
 10
715.8035061110637
 20
223.9085631112789
 30
0.0
  0
POINT
  5
150F
330
DE5
100
AcDbEntity
  8
DEFPOINTS
 62
     0
100
AcDbPoint
 10
715.8035061110637
 20
326.8984654179682
 30
0.0
  0
ENDBLK
  5
DF0
330
DE5
100
AcDbEntity
  8
0
100
AcDbBlockEnd
  0
BLOCK
  5
DFB
330
DF1
100
AcDbEntity
  8
0
100
AcDbBlockBegin
  2
*D6
 70
     1
 10
0.0
 20
0.0
 30
0.0
  3
*D6
  1

  0
LINE
  5
1519
330
DF1
100
AcDbEntity
  8
SUNPO
 62
     0
100
AcDbLine
 10
595.8034981110637
 20
284.7835631112788
 30
0.0
 11
595.8034981110637
 21
311.3117371449819
 31
0.0
  0
LINE
  5
151A
330
DF1
100
AcDbEntity
  8
SUNPO
 62
     0
100
AcDbLine
 10
520.8035011110637
 20
85.66573511127893
 30
0.0
 11
520.8035011110637
 21
311.3117371449819
 31
0.0
  0
LINE
  5
151B
330
DF1
100
AcDbEntity
  8
SUNPO
 62
     0
100
AcDbLine
 10
590.4034981110637
 20
308.911737144982
 30
0.0
 11
526.2035011110636
 21
308.911737144982
 31
0.0
  0
SOLID
  5
151C
330
DF1
100
AcDbEntity
  8
SUNPO
 62
     0
100
AcDbTrace
 10
590.4034981110637
 20
309.811737144982
 30
0.0
 11
590.4034981110637
 21
308.011737144982
 31
0.0
 12
595.8034981110637
 22
308.911737144982
 32
0.0
 13
595.8034981110637
 23
308.911737144982
 33
0.0
  0
SOLID
  5
151D
330
DF1
100
AcDbEntity
  8
SUNPO
 62
     0
100
AcDbTrace
 10
526.2035011110636
 20
309.811737144982
 30
0.0
 11
526.2035011110636
 21
308.011737144982
 31
0.0
 12
520.8035011110637
 22
308.911737144982
 32
0.0
 13
520.8035011110637
 23
308.911737144982
 33
0.0
  0
MTEXT
  5
151E
330
DF1
100
AcDbEntity
  8
SUNPO
 62
     0
100
AcDbMText
 10
558.3034996110637
 20
313.8617371449819
 30
0.0
 40
5.4
 41
0.0
 71
     5
 72
     1
  1
\A1;75
1001
ACAD
1000
MTEXTBEGIN
1070
    73
1070
     1
1070
    44
1040
1.0
1070
    74
1070
     0
1000
MTEXTEND
  0
POINT
  5
151F
330
DF1
100
AcDbEntity
  8
DEFPOINTS
 62
     0
100
AcDbPoint
 10
595.8034981110637
 20
282.9085631112789
 30
0.0
  0
POINT
  5
1520
330
DF1
100
AcDbEntity
  8
DEFPOINTS
 62
     0
100
AcDbPoint
 10
520.8035011110637
 20
83.79073511127893
 30
0.0
  0
POINT
  5
1521
330
DF1
100
AcDbEntity
  8
DEFPOINTS
 62
     0
100
AcDbPoint
 10
520.8035011110637
 20
308.911737144982
 30
0.0
  0
ENDBLK
  5
DFC
330
DF1
100
AcDbEntity
  8
0
100
AcDbBlockEnd
  0
BLOCK
  5
E07
330
DFD
100
AcDbEntity
  8
0
100
AcDbBlockBegin
  2
*D7
 70
     1
 10
0.0
 20
0.0
 30
0.0
  3
*D7
  1

  0
LINE
  5
149A
330
DFD
100
AcDbEntity
  8
SUNPO
 62
     0
100
AcDbLine
 10
385.2156089183919
 20
284.7835631112788
 30
0.0
 11
385.2156089183919
 21
311.3117371449819
 31
0.0
  0
LINE
  5
149B
330
DFD
100
AcDbEntity
  8
SUNPO
 62
     0
100
AcDbLine
 10
461.2156089183918
 20
238.089121111279
 30
0.0
 11
461.2156089183918
 21
311.3117371449819
 31
0.0
  0
LINE
  5
149C
330
DFD
100
AcDbEntity
  8
SUNPO
 62
     0
100
AcDbLine
 10
390.6156089183919
 20
308.911737144982
 30
0.0
 11
455.8156089183918
 21
308.911737144982
 31
0.0
  0
SOLID
  5
149D
330
DFD
100
AcDbEntity
  8
SUNPO
 62
     0
100
AcDbTrace
 10
390.6156089183919
 20
309.811737144982
 30
0.0
 11
390.6156089183919
 21
308.011737144982
 31
0.0
 12
385.2156089183919
 22
308.911737144982
 32
0.0
 13
385.2156089183919
 23
308.911737144982
 33
0.0
  0
SOLID
  5
149E
330
DFD
100
AcDbEntity
  8
SUNPO
 62
     0
100
AcDbTrace
 10
455.8156089183918
 20
309.811737144982
 30
0.0
 11
455.8156089183918
 21
308.011737144982
 31
0.0
 12
461.2156089183918
 22
308.911737144982
 32
0.0
 13
461.2156089183918
 23
308.911737144982
 33
0.0
  0
MTEXT
  5
149F
330
DFD
100
AcDbEntity
  8
SUNPO
 62
     0
100
AcDbMText
 10
423.2156089183918
 20
313.8617371449819
 30
0.0
 40
5.4
 41
0.0
 71
     5
 72
     1
  1
\A1;76
1001
ACAD
1000
MTEXTBEGIN
1070
    73
1070
     1
1070
    44
1040
1.0
1070
    74
1070
     0
1000
MTEXTEND
  0
POINT
  5
14A0
330
DFD
100
AcDbEntity
  8
DEFPOINTS
 62
     0
100
AcDbPoint
 10
385.2156089183919
 20
282.9085631112789
 30
0.0
  0
POINT
  5
14A1
330
DFD
100
AcDbEntity
  8
DEFPOINTS
 62
     0
100
AcDbPoint
 10
461.2156089183918
 20
236.2141211112789
 30
0.0
  0
POINT
  5
14A2
330
DFD
100
AcDbEntity
  8
DEFPOINTS
 62
     0
100
AcDbPoint
 10
461.2156089183918
 20
308.911737144982
 30
0.0
  0
ENDBLK
  5
E08
330
DFD
100
AcDbEntity
  8
0
100
AcDbBlockEnd
  0
BLOCK
  5
E13
330
E09
100
AcDbEntity
  8
0
100
AcDbBlockBegin
  2
*D8
 70
     1
 10
0.0
 20
0.0
 30
0.0
  3
*D8
  1

  0
LINE
  5
145B
330
E09
100
AcDbEntity
  8
SUNPO
 62
     0
100
AcDbLine
 10
297.2156089183918
 20
228.7835631112789
 30
0.0
 11
297.2156089183918
 21
311.3117371449819
 31
0.0
  0
LINE
  5
145C
330
E09
100
AcDbEntity
  8
SUNPO
 62
     0
100
AcDbLine
 10
242.7156089183918
 20
196.7835631112789
 30
0.0
 11
242.7156089183918
 21
311.3117371449819
 31
0.0
  0
LINE
  5
145D
330
E09
100
AcDbEntity
  8
SUNPO
 62
     0
100
AcDbLine
 10
291.8156089183919
 20
308.911737144982
 30
0.0
 11
248.1156089183918
 21
308.911737144982
 31
0.0
  0
SOLID
  5
145E
330
E09
100
AcDbEntity
  8
SUNPO
 62
     0
100
AcDbTrace
 10
291.8156089183919
 20
309.811737144982
 30
0.0
 11
291.8156089183919
 21
308.011737144982
 31
0.0
 12
297.2156089183918
 22
308.911737144982
 32
0.0
 13
297.2156089183918
 23
308.911737144982
 33
0.0
  0
SOLID
  5
145F
330
E09
100
AcDbEntity
  8
SUNPO
 62
     0
100
AcDbTrace
 10
248.1156089183918
 20
309.811737144982
 30
0.0
 11
248.1156089183918
 21
308.011737144982
 31
0.0
 12
242.7156089183918
 22
308.911737144982
 32
0.0
 13
242.7156089183918
 23
308.911737144982
 33
0.0
  0
MTEXT
  5
1460
330
E09
100
AcDbEntity
  8
SUNPO
 62
     0
100
AcDbMText
 10
269.9656089183918
 20
313.8617371449819
 30
0.0
 40
5.4
 41
0.0
 71
     5
 72
     1
  1
\A1;54.5
1001
ACAD
1000
MTEXTBEGIN
1070
    73
1070
     1
1070
    44
1040
1.0
1070
    74
1070
     0
1000
MTEXTEND
  0
POINT
  5
1461
330
E09
100
AcDbEntity
  8
DEFPOINTS
 62
     0
100
AcDbPoint
 10
297.2156089183918
 20
226.9085631112789
 30
0.0
  0
POINT
  5
1462
330
E09
100
AcDbEntity
  8
DEFPOINTS
 62
     0
100
AcDbPoint
 10
242.7156089183918
 20
194.9085631112789
 30
0.0
  0
POINT
  5
1463
330
E09
100
AcDbEntity
  8
DEFPOINTS
 62
     0
100
AcDbPoint
 10
242.7156089183918
 20
308.911737144982
 30
0.0
  0
ENDBLK
  5
E14
330
E09
100
AcDbEntity
  8
0
100
AcDbBlockEnd
  0
BLOCK
  5
E1F
330
E15
100
AcDbEntity
  8
0
100
AcDbBlockBegin
  2
*D9
 70
     1
 10
0.0
 20
0.0
 30
0.0
  3
*D9
  1

  0
LINE
  5
14AC
330
E15
100
AcDbEntity
  8
SUNPO
 62
     0
100
AcDbLine
 10
385.2156089183919
 20
284.7835631112788
 30
0.0
 11
385.2156089183919
 21
311.3117371449819
 31
0.0
  0
LINE
  5
14AD
330
E15
100
AcDbEntity
  8
SUNPO
 62
     0
100
AcDbLine
 10
297.2156089183918
 20
228.7835631112789
 30
0.0
 11
297.2156089183918
 21
311.3117371449819
 31
0.0
  0
LINE
  5
14AE
330
E15
100
AcDbEntity
  8
SUNPO
 62
     0
100
AcDbLine
 10
379.8156089183919
 20
308.911737144982
 30
0.0
 11
302.6156089183918
 21
308.911737144982
 31
0.0
  0
SOLID
  5
14AF
330
E15
100
AcDbEntity
  8
SUNPO
 62
     0
100
AcDbTrace
 10
379.8156089183919
 20
309.811737144982
 30
0.0
 11
379.8156089183919
 21
308.011737144982
 31
0.0
 12
385.2156089183919
 22
308.911737144982
 32
0.0
 13
385.2156089183919
 23
308.911737144982
 33
0.0
  0
SOLID
  5
14B0
330
E15
100
AcDbEntity
  8
SUNPO
 62
     0
100
AcDbTrace
 10
302.6156089183918
 20
309.811737144982
 30
0.0
 11
302.6156089183918
 21
308.011737144982
 31
0.0
 12
297.2156089183918
 22
308.911737144982
 32
0.0
 13
297.2156089183918
 23
308.911737144982
 33
0.0
  0
MTEXT
  5
14B1
330
E15
100
AcDbEntity
  8
SUNPO
 62
     0
100
AcDbMText
 10
341.2156089183919
 20
313.8617371449819
 30
0.0
 40
5.4
 41
0.0
 71
     5
 72
     1
  1
\A1;88
1001
ACAD
1000
MTEXTBEGIN
1070
    73
1070
     1
1070
    44
1040
1.0
1070
    74
1070
     0
1000
MTEXTEND
  0
POINT
  5
14B2
330
E15
100
AcDbEntity
  8
DEFPOINTS
 62
     0
100
AcDbPoint
 10
385.2156089183919
 20
282.9085631112789
 30
0.0
  0
POINT
  5
14B3
330
E15
100
AcDbEntity
  8
DEFPOINTS
 62
     0
100
AcDbPoint
 10
297.2156089183918
 20
226.9085631112789
 30
0.0
  0
POINT
  5
14B4
330
E15
100
AcDbEntity
  8
DEFPOINTS
 62
     0
100
AcDbPoint
 10
297.2156089183918
 20
308.911737144982
 30
0.0
  0
ENDBLK
  5
E20
330
E15
100
AcDbEntity
  8
0
100
AcDbBlockEnd
  0
BLOCK
  5
E2B
330
E21
100
AcDbEntity
  8
0
100
AcDbBlockBegin
  2
*D10
 70
     1
 10
0.0
 20
0.0
 30
0.0
  3
*D10
  1

  0
LINE
  5
146D
330
E21
100
AcDbEntity
  8
SUNPO
 62
     0
100
AcDbLine
 10
242.7156089183918
 20
196.7835631112789
 30
0.0
 11
242.7156089183918
 21
311.3117371449819
 31
0.0
  0
LINE
  5
146E
330
E21
100
AcDbEntity
  8
SUNPO
 62
     0
100
AcDbLine
 10
66.71561291839191
 20
193.7835631112789
 30
0.0
 11
66.71561291839193
 21
311.3117371449819
 31
0.0
  0
LINE
  5
146F
330
E21
100
AcDbEntity
  8
SUNPO
 62
     0
100
AcDbLine
 10
237.3156089183918
 20
308.911737144982
 30
0.0
 11
72.11561291839193
 21
308.911737144982
 31
0.0
  0
SOLID
  5
1470
330
E21
100
AcDbEntity
  8
SUNPO
 62
     0
100
AcDbTrace
 10
237.3156089183918
 20
309.811737144982
 30
0.0
 11
237.3156089183918
 21
308.011737144982
 31
0.0
 12
242.7156089183918
 22
308.911737144982
 32
0.0
 13
242.7156089183918
 23
308.911737144982
 33
0.0
  0
SOLID
  5
1471
330
E21
100
AcDbEntity
  8
SUNPO
 62
     0
100
AcDbTrace
 10
72.11561291839193
 20
309.811737144982
 30
0.0
 11
72.11561291839193
 21
308.011737144982
 31
0.0
 12
66.71561291839193
 22
308.911737144982
 32
0.0
 13
66.71561291839193
 23
308.911737144982
 33
0.0
  0
MTEXT
  5
1472
330
E21
100
AcDbEntity
  8
SUNPO
 62
     0
100
AcDbMText
 10
154.7156109183918
 20
313.8617371449819
 30
0.0
 40
5.4
 41
0.0
 71
     5
 72
     1
  1
\A1;176
1001
ACAD
1000
MTEXTBEGIN
1070
    73
1070
     1
1070
    44
1040
1.0
1070
    74
1070
     0
1000
MTEXTEND
  0
POINT
  5
1473
330
E21
100
AcDbEntity
  8
DEFPOINTS
 62
     0
100
AcDbPoint
 10
242.7156089183918
 20
194.9085631112789
 30
0.0
  0
POINT
  5
1474
330
E21
100
AcDbEntity
  8
DEFPOINTS
 62
     0
100
AcDbPoint
 10
66.71561291839191
 20
191.9085631112789
 30
0.0
  0
POINT
  5
1475
330
E21
100
AcDbEntity
  8
DEFPOINTS
 62
     0
100
AcDbPoint
 10
66.71561291839193
 20
308.911737144982
 30
0.0
  0
ENDBLK
  5
E2C
330
E21
100
AcDbEntity
  8
0
100
AcDbBlockEnd
  0
BLOCK
  5
E37
330
E2D
100
AcDbEntity
  8
0
100
AcDbBlockBegin
  2
*D11
 70
     1
 10
0.0
 20
0.0
 30
0.0
  3
*D11
  1

  0
LINE
  5
1452
330
E2D
100
AcDbEntity
  8
SUNPO
 62
     0
100
AcDbLine
 10
66.71561291839191
 20
193.7835631112789
 30
0.0
 11
66.71561291839193
 21
329.2984654179682
 31
0.0
  0
LINE
  5
1453
330
E2D
100
AcDbEntity
  8
SUNPO
 62
     0
100
AcDbLine
 10
461.2156089183918
 20
238.089121111279
 30
0.0
 11
461.2156089183918
 21
329.2984654179682
 31
0.0
  0
LINE
  5
1454
330
E2D
100
AcDbEntity
  8
SUNPO
 62
     0
100
AcDbLine
 10
72.11561291839193
 20
326.8984654179682
 30
0.0
 11
455.8156089183918
 21
326.8984654179682
 31
0.0
  0
SOLID
  5
1455
330
E2D
100
AcDbEntity
  8
SUNPO
 62
     0
100
AcDbTrace
 10
72.11561291839193
 20
327.7984654179682
 30
0.0
 11
72.11561291839193
 21
325.9984654179683
 31
0.0
 12
66.71561291839193
 22
326.8984654179682
 32
0.0
 13
66.71561291839193
 23
326.8984654179682
 33
0.0
  0
SOLID
  5
1456
330
E2D
100
AcDbEntity
  8
SUNPO
 62
     0
100
AcDbTrace
 10
455.8156089183918
 20
327.7984654179682
 30
0.0
 11
455.8156089183918
 21
325.9984654179683
 31
0.0
 12
461.2156089183918
 22
326.8984654179682
 32
0.0
 13
461.2156089183918
 23
326.8984654179682
 33
0.0
  0
MTEXT
  5
1457
330
E2D
100
AcDbEntity
  8
SUNPO
 62
     0
100
AcDbMText
 10
263.9656109183918
 20
331.8484654179682
 30
0.0
 40
5.4
 41
0.0
 71
     5
 72
     1
  1
\A1;394.5
1001
ACAD
1000
MTEXTBEGIN
1070
    73
1070
     1
1070
    44
1040
1.0
1070
    74
1070
     0
1000
MTEXTEND
  0
POINT
  5
1458
330
E2D
100
AcDbEntity
  8
DEFPOINTS
 62
     0
100
AcDbPoint
 10
66.71561291839191
 20
191.9085631112789
 30
0.0
  0
POINT
  5
1459
330
E2D
100
AcDbEntity
  8
DEFPOINTS
 62
     0
100
AcDbPoint
 10
461.2156089183918
 20
236.2141211112789
 30
0.0
  0
POINT
  5
145A
330
E2D
100
AcDbEntity
  8
DEFPOINTS
 62
     0
100
AcDbPoint
 10
461.2156089183918
 20
326.8984654179682
 30
0.0
  0
ENDBLK
  5
E38
330
E2D
100
AcDbEntity
  8
0
100
AcDbBlockEnd
  0
BLOCK
  5
E43
330
E39
100
AcDbEntity
  8
0
100
AcDbBlockBegin
  2
*D12
 70
     1
 10
0.0
 20
0.0
 30
0.0
  3
*D12
  1

  0
LINE
  5
1464
330
E39
100
AcDbEntity
  8
SUNPO
 62
     0
100
AcDbLine
 10
69.84058291839045
 20
102.9085601112788
 30
0.0
 11
40.23872743391907
 21
102.9085601112788
 31
0.0
  0
LINE
  5
1465
330
E39
100
AcDbEntity
  8
SUNPO
 62
     0
100
AcDbLine
 10
69.84058291839045
 20
196.9085631112789
 30
0.0
 11
40.23872743391908
 21
196.9085631112789
 31
0.0
  0
LINE
  5
1466
330
E39
100
AcDbEntity
  8
SUNPO
 62
     0
100
AcDbLine
 10
42.63872743391906
 20
108.3085601112788
 30
0.0
 11
42.63872743391909
 21
191.5085631112789
 31
0.0
  0
SOLID
  5
1467
330
E39
100
AcDbEntity
  8
SUNPO
 62
     0
100
AcDbTrace
 10
41.73872743391906
 20
108.3085601112788
 30
0.0
 11
43.53872743391906
 21
108.3085601112788
 31
0.0
 12
42.63872743391906
 22
102.9085601112788
 32
0.0
 13
42.63872743391906
 23
102.9085601112788
 33
0.0
  0
SOLID
  5
1468
330
E39
100
AcDbEntity
  8
SUNPO
 62
     0
100
AcDbTrace
 10
41.73872743391909
 20
191.5085631112789
 30
0.0
 11
43.53872743391908
 21
191.5085631112789
 31
0.0
 12
42.63872743391909
 22
196.9085631112789
 32
0.0
 13
42.63872743391909
 23
196.9085631112789
 33
0.0
  0
MTEXT
  5
1469
330
E39
100
AcDbEntity
  8
SUNPO
 62
     0
100
AcDbMText
 10
37.68872743391904
 20
149.9085616112789
 30
0.0
 40
5.4
 41
0.0
 71
     5
 72
     1
  1
\A1;94
 11
0.0000000000000001
 21
1.0
 31
0.0
1001
ACAD
1000
MTEXTBEGIN
1070
    73
1070
     1
1070
    44
1040
1.0
1070
    74
1070
     0
1000
MTEXTEND
  0
POINT
  5
146A
330
E39
100
AcDbEntity
  8
DEFPOINTS
 62
     0
100
AcDbPoint
 10
71.71558291839045
 20
102.9085601112788
 30
0.0
  0
POINT
  5
146B
330
E39
100
AcDbEntity
  8
DEFPOINTS
 62
     0
100
AcDbPoint
 10
71.71558291839045
 20
196.9085631112789
 30
0.0
  0
POINT
  5
146C
330
E39
100
AcDbEntity
  8
DEFPOINTS
 62
     0
100
AcDbPoint
 10
42.63872743391909
 20
196.9085631112789
 30
0.0
  0
ENDBLK
  5
E44
330
E39
100
AcDbEntity
  8
0
100
AcDbBlockEnd
  0
BLOCK
  5
E4F
330
E45
100
AcDbEntity
  8
0
100
AcDbBlockBegin
  2
*D13
 70
     1
 10
0.0
 20
0.0
 30
0.0
  3
*D13
  1

  0
LINE
  5
1476
330
E45
100
AcDbEntity
  8
SUNPO
 62
     0
100
AcDbLine
 10
463.0906089183918
 20
67.90856711127898
 30
0.0
 11
489.31676438906
 21
67.90856711127897
 31
0.0
  0
LINE
  5
1477
330
E45
100
AcDbEntity
  8
SUNPO
 62
     0
100
AcDbLine
 10
413.5939959183919
 20
272.9085631112789
 30
0.0
 11
489.3167643890601
 21
272.9085631112789
 31
0.0
  0
LINE
  5
1478
330
E45
100
AcDbEntity
  8
SUNPO
 62
     0
100
AcDbLine
 10
486.91676438906
 20
73.30856711127897
 30
0.0
 11
486.9167643890601
 21
267.5085631112789
 31
0.0
  0
SOLID
  5
1479
330
E45
100
AcDbEntity
  8
SUNPO
 62
     0
100
AcDbTrace
 10
486.01676438906
 20
73.30856711127897
 30
0.0
 11
487.81676438906
 21
73.30856711127897
 31
0.0
 12
486.91676438906
 22
67.90856711127897
 32
0.0
 13
486.91676438906
 23
67.90856711127897
 33
0.0
  0
SOLID
  5
147A
330
E45
100
AcDbEntity
  8
SUNPO
 62
     0
100
AcDbTrace
 10
486.0167643890601
 20
267.5085631112789
 30
0.0
 11
487.81676438906
 21
267.5085631112789
 31
0.0
 12
486.9167643890601
 22
272.9085631112789
 32
0.0
 13
486.9167643890601
 23
272.9085631112789
 33
0.0
  0
MTEXT
  5
147B
330
E45
100
AcDbEntity
  8
SUNPO
 62
     0
100
AcDbMText
 10
481.9667643890601
 20
170.408565111279
 30
0.0
 40
5.4
 41
0.0
 71
     5
 72
     1
  1
\A1;205
 11
0.0000000000000001
 21
1.0
 31
0.0
1001
ACAD
1000
MTEXTBEGIN
1070
    73
1070
     1
1070
    44
1040
1.0
1070
    74
1070
     0
1000
MTEXTEND
  0
POINT
  5
147C
330
E45
100
AcDbEntity
  8
DEFPOINTS
 62
     0
100
AcDbPoint
 10
461.2156089183918
 20
67.90856711127898
 30
0.0
  0
POINT
  5
147D
330
E45
100
AcDbEntity
  8
DEFPOINTS
 62
     0
100
AcDbPoint
 10
411.7189959183918
 20
272.9085631112789
 30
0.0
  0
POINT
  5
147E
330
E45
100
AcDbEntity
  8
DEFPOINTS
 62
     0
100
AcDbPoint
 10
486.9167643890601
 20
272.9085631112789
 30
0.0
  0
ENDBLK
  5
E50
330
E45
100
AcDbEntity
  8
0
100
AcDbBlockEnd
  0
BLOCK
  5
E5B
330
E51
100
AcDbEntity
  8
0
100
AcDbBlockBegin
  2
*D14
 70
     1
 10
0.0
 20
0.0
 30
0.0
  3
*D14
  1

  0
LINE
  5
1491
330
E51
100
AcDbEntity
  8
SUNPO
 62
     0
100
AcDbLine
 10
337.7156089183918
 20
61.03356711127901
 30
0.0
 11
337.7156089183918
 21
40.08927156915215
 31
0.0
  0
LINE
  5
1492
330
E51
100
AcDbEntity
  8
SUNPO
 62
     0
100
AcDbLine
 10
432.7156089183917
 20
61.03356711127898
 30
0.0
 11
432.7156089183917
 21
40.08927156915215
 31
0.0
  0
LINE
  5
1493
330
E51
100
AcDbEntity
  8
SUNPO
 62
     0
100
AcDbLine
 10
343.1156089183918
 20
42.48927156915215
 30
0.0
 11
427.3156089183918
 21
42.48927156915215
 31
0.0
  0
SOLID
  5
1494
330
E51
100
AcDbEntity
  8
SUNPO
 62
     0
100
AcDbTrace
 10
343.1156089183918
 20
43.38927156915215
 30
0.0
 11
343.1156089183918
 21
41.58927156915215
 31
0.0
 12
337.7156089183918
 22
42.48927156915215
 32
0.0
 13
337.7156089183918
 23
42.48927156915215
 33
0.0
  0
SOLID
  5
1495
330
E51
100
AcDbEntity
  8
SUNPO
 62
     0
100
AcDbTrace
 10
427.3156089183918
 20
43.38927156915215
 30
0.0
 11
427.3156089183918
 21
41.58927156915215
 31
0.0
 12
432.7156089183917
 22
42.48927156915215
 32
0.0
 13
432.7156089183917
 23
42.48927156915215
 33
0.0
  0
MTEXT
  5
1496
330
E51
100
AcDbEntity
  8
SUNPO
 62
     0
100
AcDbMText
 10
385.2156089183918
 20
47.43927156915215
 30
0.0
 40
5.4
 41
0.0
 71
     5
 72
     1
  1
\A1;95
1001
ACAD
1000
MTEXTBEGIN
1070
    73
1070
     1
1070
    44
1040
1.0
1070
    74
1070
     0
1000
MTEXTEND
  0
POINT
  5
1497
330
E51
100
AcDbEntity
  8
DEFPOINTS
 62
     0
100
AcDbPoint
 10
337.7156089183918
 20
62.90856711127901
 30
0.0
  0
POINT
  5
1498
330
E51
100
AcDbEntity
  8
DEFPOINTS
 62
     0
100
AcDbPoint
 10
432.7156089183917
 20
62.90856711127898
 30
0.0
  0
POINT
  5
1499
330
E51
100
AcDbEntity
  8
DEFPOINTS
 62
     0
100
AcDbPoint
 10
432.7156089183917
 20
42.48927156915215
 30
0.0
  0
ENDBLK
  5
E5C
330
E51
100
AcDbEntity
  8
0
100
AcDbBlockEnd
  0
BLOCK
  5
E67
330
E5D
100
AcDbEntity
  8
0
100
AcDbBlockBegin
  2
*D15
 70
     1
 10
0.0
 20
0.0
 30
0.0
  3
*D15
  1

  0
LINE
  5
1488
330
E5D
100
AcDbEntity
  8
SUNPO
 62
     0
100
AcDbLine
 10
461.2156089183918
 20
66.03356711127898
 30
0.0
 11
461.2156089183918
 21
22.0841400704363
 31
0.0
  0
LINE
  5
1489
330
E5D
100
AcDbEntity
  8
SUNPO
 62
     0
100
AcDbLine
 10
309.2156089183918
 20
66.03356711127898
 30
0.0
 11
309.2156089183918
 21
22.0841400704363
 31
0.0
  0
LINE
  5
148A
330
E5D
100
AcDbEntity
  8
SUNPO
 62
     0
100
AcDbLine
 10
455.8156089183918
 20
24.48414007043629
 30
0.0
 11
314.6156089183918
 21
24.48414007043629
 31
0.0
  0
SOLID
  5
148B
330
E5D
100
AcDbEntity
  8
SUNPO
 62
     0
100
AcDbTrace
 10
455.8156089183918
 20
25.38414007043629
 30
0.0
 11
455.8156089183918
 21
23.58414007043629
 31
0.0
 12
461.2156089183918
 22
24.48414007043629
 32
0.0
 13
461.2156089183918
 23
24.48414007043629
 33
0.0
  0
SOLID
  5
148C
330
E5D
100
AcDbEntity
  8
SUNPO
 62
     0
100
AcDbTrace
 10
314.6156089183918
 20
25.38414007043629
 30
0.0
 11
314.6156089183918
 21
23.58414007043629
 31
0.0
 12
309.2156089183918
 22
24.48414007043629
 32
0.0
 13
309.2156089183918
 23
24.48414007043629
 33
0.0
  0
MTEXT
  5
148D
330
E5D
100
AcDbEntity
  8
SUNPO
 62
     0
100
AcDbMText
 10
385.2156089183918
 20
29.43414007043629
 30
0.0
 40
5.4
 41
0.0
 71
     5
 72
     1
  1
\A1;152
1001
ACAD
1000
MTEXTBEGIN
1070
    73
1070
     1
1070
    44
1040
1.0
1070
    74
1070
     0
1000
MTEXTEND
  0
POINT
  5
148E
330
E5D
100
AcDbEntity
  8
DEFPOINTS
 62
     0
100
AcDbPoint
 10
461.2156089183918
 20
67.90856711127898
 30
0.0
  0
POINT
  5
148F
330
E5D
100
AcDbEntity
  8
DEFPOINTS
 62
     0
100
AcDbPoint
 10
309.2156089183918
 20
67.90856711127898
 30
0.0
  0
POINT
  5
1490
330
E5D
100
AcDbEntity
  8
DEFPOINTS
 62
     0
100
AcDbPoint
 10
309.2156089183918
 20
24.48414007043629
 30
0.0
  0
ENDBLK
  5
E68
330
E5D
100
AcDbEntity
  8
0
100
AcDbBlockEnd
  0
BLOCK
  5
E73
330
E69
100
AcDbEntity
  8
0
100
AcDbBlockBegin
  2
*D16
 70
     1
 10
0.0
 20
0.0
 30
0.0
  3
*D16
  1

  0
LINE
  5
14A3
330
E69
100
AcDbEntity
  8
SUNPO
 62
     0
100
AcDbLine
 10
328.2682218726056
 20
207.9085631112789
 30
0.0
 11
320.1511058826519
 21
207.9085631112789
 31
0.0
  0
LINE
  5
14A4
330
E69
100
AcDbEntity
  8
SUNPO
 62
     0
100
AcDbLine
 10
340.2269609183918
 20
149.9085631112789
 30
0.0
 11
320.1511058826519
 21
149.9085631112789
 31
0.0
  0
LINE
  5
14A5
330
E69
100
AcDbEntity
  8
SUNPO
 62
     0
100
AcDbLine
 10
322.5511058826518
 20
202.5085631112789
 30
0.0
 11
322.5511058826518
 21
155.3085631112789
 31
0.0
  0
SOLID
  5
14A6
330
E69
100
AcDbEntity
  8
SUNPO
 62
     0
100
AcDbTrace
 10
321.6511058826519
 20
202.5085631112789
 30
0.0
 11
323.4511058826518
 21
202.5085631112789
 31
0.0
 12
322.5511058826518
 22
207.9085631112789
 32
0.0
 13
322.5511058826518
 23
207.9085631112789
 33
0.0
  0
SOLID
  5
14A7
330
E69
100
AcDbEntity
  8
SUNPO
 62
     0
100
AcDbTrace
 10
321.6511058826519
 20
155.3085631112789
 30
0.0
 11
323.4511058826518
 21
155.3085631112789
 31
0.0
 12
322.5511058826518
 22
149.9085631112789
 32
0.0
 13
322.5511058826518
 23
149.9085631112789
 33
0.0
  0
MTEXT
  5
14A8
330
E69
100
AcDbEntity
  8
SUNPO
 62
     0
100
AcDbMText
 10
317.6011058826518
 20
178.908563111279
 30
0.0
 40
5.4
 41
0.0
 71
     5
 72
     1
  1
\A1;58
 11
0.0000000000000001
 21
1.0
 31
0.0
1001
ACAD
1000
MTEXTBEGIN
1070
    73
1070
     1
1070
    44
1040
1.0
1070
    74
1070
     0
1000
MTEXTEND
  0
POINT
  5
14A9
330
E69
100
AcDbEntity
  8
DEFPOINTS
 62
     0
100
AcDbPoint
 10
330.1432218726056
 20
207.9085631112789
 30
0.0
  0
POINT
  5
14AA
330
E69
100
AcDbEntity
  8
DEFPOINTS
 62
     0
100
AcDbPoint
 10
342.1019609183918
 20
149.9085631112789
 30
0.0
  0
POINT
  5
14AB
330
E69
100
AcDbEntity
  8
DEFPOINTS
 62
     0
100
AcDbPoint
 10
322.5511058826518
 20
149.9085631112789
 30
0.0
  0
ENDBLK
  5
E74
330
E69
100
AcDbEntity
  8
0
100
AcDbBlockEnd
  0
BLOCK
  5
E7F
330
E75
100
AcDbEntity
  8
0
100
AcDbBlockBegin
  2
*D17
 70
     1
 10
0.0
 20
0.0
 30
0.0
  3
*D17
  1

  0
LINE
  5
1522
330
E75
100
AcDbEntity
  8
SUNPO
 62
     0
100
AcDbLine
 10
660.8035061110637
 20
227.2835631112789
 30
0.0
 11
660.8035061110637
 21
293.0976510878869
 31
0.0
  0
LINE
  5
1523
330
E75
100
AcDbEntity
  8
SUNPO
 62
     0
100
AcDbLine
 10
715.8035061110637
 20
225.7835631112789
 30
0.0
 11
715.8035061110637
 21
293.0976510878869
 31
0.0
  0
LINE
  5
1524
330
E75
100
AcDbEntity
  8
SUNPO
 62
     0
100
AcDbLine
 10
666.2035061110636
 20
290.6976510878869
 30
0.0
 11
710.4035061110637
 21
290.6976510878869
 31
0.0
  0
SOLID
  5
1525
330
E75
100
AcDbEntity
  8
SUNPO
 62
     0
100
AcDbTrace
 10
666.2035061110636
 20
291.5976510878869
 30
0.0
 11
666.2035061110636
 21
289.7976510878869
 31
0.0
 12
660.8035061110637
 22
290.6976510878869
 32
0.0
 13
660.8035061110637
 23
290.6976510878869
 33
0.0
  0
SOLID
  5
1526
330
E75
100
AcDbEntity
  8
SUNPO
 62
     0
100
AcDbTrace
 10
710.4035061110637
 20
291.5976510878869
 30
0.0
 11
710.4035061110637
 21
289.7976510878869
 31
0.0
 12
715.8035061110637
 22
290.6976510878869
 32
0.0
 13
715.8035061110637
 23
290.6976510878869
 33
0.0
  0
MTEXT
  5
1527
330
E75
100
AcDbEntity
  8
SUNPO
 62
     0
100
AcDbMText
 10
688.3035061110637
 20
295.6476510878869
 30
0.0
 40
5.4
 41
0.0
 71
     5
 72
     1
  1
\A1;55
1001
ACAD
1000
MTEXTBEGIN
1070
    73
1070
     1
1070
    44
1040
1.0
1070
    74
1070
     0
1000
MTEXTEND
  0
POINT
  5
1528
330
E75
100
AcDbEntity
  8
DEFPOINTS
 62
     0
100
AcDbPoint
 10
660.8035061110637
 20
225.4085631112789
 30
0.0
  0
POINT
  5
1529
330
E75
100
AcDbEntity
  8
DEFPOINTS
 62
     0
100
AcDbPoint
 10
715.8035061110637
 20
223.9085631112789
 30
0.0
  0
POINT
  5
152A
330
E75
100
AcDbEntity
  8
DEFPOINTS
 62
     0
100
AcDbPoint
 10
715.8035061110637
 20
290.6976510878869
 30
0.0
  0
ENDBLK
  5
E80
330
E75
100
AcDbEntity
  8
0
100
AcDbBlockEnd
  0
BLOCK
  5
E8B
330
E81
100
AcDbEntity
  8
0
100
AcDbBlockBegin
  2
*D18
 70
     1
 10
0.0
 20
0.0
 30
0.0
  3
*D18
  1

  0
LINE
  5
152B
330
E81
100
AcDbEntity
  8
SUNPO
 62
     0
100
AcDbLine
 10
655.8035061110636
 20
61.03355611127892
 30
0.0
 11
655.8035061110636
 21
40.08926256915194
 31
0.0
  0
LINE
  5
152C
330
E81
100
AcDbEntity
  8
SUNPO
 62
     0
100
AcDbLine
 10
715.8035061110637
 20
190.0335631112788
 30
0.0
 11
715.8035061110637
 21
40.08926256915194
 31
0.0
  0
LINE
  5
152D
330
E81
100
AcDbEntity
  8
SUNPO
 62
     0
100
AcDbLine
 10
661.2035061110637
 20
42.48926256915194
 30
0.0
 11
710.4035061110637
 21
42.48926256915194
 31
0.0
  0
SOLID
  5
152E
330
E81
100
AcDbEntity
  8
SUNPO
 62
     0
100
AcDbTrace
 10
661.2035061110637
 20
43.38926256915194
 30
0.0
 11
661.2035061110637
 21
41.58926256915195
 31
0.0
 12
655.8035061110636
 22
42.48926256915194
 32
0.0
 13
655.8035061110636
 23
42.48926256915194
 33
0.0
  0
SOLID
  5
152F
330
E81
100
AcDbEntity
  8
SUNPO
 62
     0
100
AcDbTrace
 10
710.4035061110637
 20
43.38926256915194
 30
0.0
 11
710.4035061110637
 21
41.58926256915195
 31
0.0
 12
715.8035061110637
 22
42.48926256915194
 32
0.0
 13
715.8035061110637
 23
42.48926256915194
 33
0.0
  0
MTEXT
  5
1530
330
E81
100
AcDbEntity
  8
SUNPO
 62
     0
100
AcDbMText
 10
685.8035061110637
 20
47.43926256915194
 30
0.0
 40
5.4
 41
0.0
 71
     5
 72
     1
  1
\A1;60
1001
ACAD
1000
MTEXTBEGIN
1070
    73
1070
     1
1070
    44
1040
1.0
1070
    74
1070
     0
1000
MTEXTEND
  0
POINT
  5
1531
330
E81
100
AcDbEntity
  8
DEFPOINTS
 62
     0
100
AcDbPoint
 10
655.8035061110636
 20
62.90855611127892
 30
0.0
  0
POINT
  5
1532
330
E81
100
AcDbEntity
  8
DEFPOINTS
 62
     0
100
AcDbPoint
 10
715.8035061110637
 20
191.9085631112789
 30
0.0
  0
POINT
  5
1533
330
E81
100
AcDbEntity
  8
DEFPOINTS
 62
     0
100
AcDbPoint
 10
715.8035061110637
 20
42.48926256915194
 30
0.0
  0
ENDBLK
  5
E8C
330
E81
100
AcDbEntity
  8
0
100
AcDbBlockEnd
  0
BLOCK
  5
E97
330
E8D
100
AcDbEntity
  8
0
100
AcDbBlockBegin
  2
*D19
 70
     1
 10
0.0
 20
0.0
 30
0.0
  3
*D19
  1

  0
LINE
  5
1534
330
E8D
100
AcDbEntity
  8
SUNPO
 62
     0
100
AcDbLine
 10
727.6785061110636
 20
207.9085631112788
 30
0.0
 11
759.2957014783535
 21
207.9085631112788
 31
0.0
  0
LINE
  5
1535
330
E8D
100
AcDbEntity
  8
SUNPO
 62
     0
100
AcDbLine
 10
672.6785061110637
 20
67.90855611127891
 30
0.0
 11
759.2957014783535
 21
67.9085561112789
 31
0.0
  0
LINE
  5
1536
330
E8D
100
AcDbEntity
  8
SUNPO
 62
     0
100
AcDbLine
 10
756.8957014783535
 20
202.5085631112788
 30
0.0
 11
756.8957014783535
 21
73.30855611127891
 31
0.0
  0
SOLID
  5
1537
330
E8D
100
AcDbEntity
  8
SUNPO
 62
     0
100
AcDbTrace
 10
755.9957014783535
 20
202.5085631112788
 30
0.0
 11
757.7957014783535
 21
202.5085631112788
 31
0.0
 12
756.8957014783535
 22
207.9085631112788
 32
0.0
 13
756.8957014783535
 23
207.9085631112788
 33
0.0
  0
SOLID
  5
1538
330
E8D
100
AcDbEntity
  8
SUNPO
 62
     0
100
AcDbTrace
 10
755.9957014783535
 20
73.30855611127891
 30
0.0
 11
757.7957014783535
 21
73.30855611127891
 31
0.0
 12
756.8957014783535
 22
67.9085561112789
 32
0.0
 13
756.8957014783535
 23
67.9085561112789
 33
0.0
  0
MTEXT
  5
1539
330
E8D
100
AcDbEntity
  8
SUNPO
 62
     0
100
AcDbMText
 10
751.9457014783535
 20
137.908559611279
 30
0.0
 40
5.4
 41
0.0
 71
     5
 72
     1
  1
\A1;140
 11
0.0000000000000001
 21
1.0
 31
0.0
1001
ACAD
1000
MTEXTBEGIN
1070
    73
1070
     1
1070
    44
1040
1.0
1070
    74
1070
     0
1000
MTEXTEND
  0
POINT
  5
153A
330
E8D
100
AcDbEntity
  8
DEFPOINTS
 62
     0
100
AcDbPoint
 10
725.8035061110637
 20
207.9085631112788
 30
0.0
  0
POINT
  5
153B
330
E8D
100
AcDbEntity
  8
DEFPOINTS
 62
     0
100
AcDbPoint
 10
670.8035061110637
 20
67.90855611127892
 30
0.0
  0
POINT
  5
153C
330
E8D
100
AcDbEntity
  8
DEFPOINTS
 62
     0
100
AcDbPoint
 10
756.8957014783535
 20
67.9085561112789
 30
0.0
  0
ENDBLK
  5
E98
330
E8D
100
AcDbEntity
  8
0
100
AcDbBlockEnd
  0
BLOCK
  5
EA5
330
E99
100
AcDbEntity
  8
0
100
AcDbBlockBegin
  2
*D20
 70
     1
 10
0.0
 20
0.0
 30
0.0
  3
*D20
  1

  0
LINE
  5
153D
330
E99
100
AcDbEntity
  8
SUNPO
 62
     0
100
AcDbLine
 10
672.6785061110637
 20
67.90855611127888
 30
0.0
 11
698.021446516401
 21
67.90855611127888
 31
0.0
  0
LINE
  5
153E
330
E99
100
AcDbEntity
  8
SUNPO
 62
     0
100
AcDbLine
 10
670.1785061110637
 20
85.90855611127892
 30
0.0
 11
698.021446516401
 21
85.9085561112789
 31
0.0
  0
LINE
  5
153F
330
E99
100
AcDbEntity
  8
SUNPO
 62
     0
100
AcDbLine
 10
695.621446516401
 20
73.30855611127889
 30
0.0
 11
695.621446516401
 21
80.50855611127891
 31
0.0
  0
SOLID
  5
1540
330
E99
100
AcDbEntity
  8
SUNPO
 62
     0
100
AcDbTrace
 10
694.7214465164011
 20
73.30855611127889
 30
0.0
 11
696.521446516401
 21
73.30855611127889
 31
0.0
 12
695.621446516401
 22
67.90855611127888
 32
0.0
 13
695.621446516401
 23
67.90855611127888
 33
0.0
  0
SOLID
  5
1541
330
E99
100
AcDbEntity
  8
SUNPO
 62
     0
100
AcDbTrace
 10
694.7214465164011
 20
80.50855611127891
 30
0.0
 11
696.521446516401
 21
80.50855611127891
 31
0.0
 12
695.621446516401
 22
85.9085561112789
 32
0.0
 13
695.621446516401
 23
85.9085561112789
 33
0.0
  0
MTEXT
  5
1542
330
E99
100
AcDbEntity
  8
SUNPO
 62
     0
100
AcDbMText
 10
690.671446516401
 20
75.40855611127904
 30
0.0
 40
5.4
 41
0.0
 71
     5
 72
     1
  1
\A1;18
 11
0.0000000000000001
 21
1.0
 31
0.0
1001
ACAD
1000
MTEXTBEGIN
1070
    73
1070
     1
1070
    44
1040
1.0
1070
    74
1070
     0
1000
MTEXTEND
  0
POINT
  5
1543
330
E99
100
AcDbEntity
  8
DEFPOINTS
 62
     0
100
AcDbPoint
 10
670.8035061110637
 20
67.9085561112789
 30
0.0
  0
POINT
  5
1544
330
E99
100
AcDbEntity
  8
DEFPOINTS
 62
     0
100
AcDbPoint
 10
668.3035061110636
 20
85.90855611127892
 30
0.0
  0
POINT
  5
1545
330
E99
100
AcDbEntity
  8
DEFPOINTS
 62
     0
100
AcDbPoint
 10
695.621446516401
 20
85.9085561112789
 30
0.0
  0
ENDBLK
  5
EA6
330
E99
100
AcDbEntity
  8
0
100
AcDbBlockEnd
  0
BLOCK
  5
EB1
330
EA7
100
AcDbEntity
  8
0
100
AcDbBlockBegin
  2
*D21
 70
     1
 10
0.0
 20
0.0
 30
0.0
  3
*D21
  1

  0
LINE
  5
1550
330
EA7
100
AcDbEntity
  8
SUNPO
 62
     0
100
AcDbLine
 10
665.8035061110637
 20
209.7835631112789
 30
0.0
 11
665.8035061110637
 21
275.2088175366235
 31
0.0
  0
LINE
  5
1551
330
EA7
100
AcDbEntity
  8
SUNPO
 62
     0
100
AcDbLine
 10
715.8035061110637
 20
225.7835631112789
 30
0.0
 11
715.8035061110637
 21
275.2088175366235
 31
0.0
  0
LINE
  5
1552
330
EA7
100
AcDbEntity
  8
SUNPO
 62
     0
100
AcDbLine
 10
671.2035061110636
 20
272.8088175366235
 30
0.0
 11
710.4035061110637
 21
272.8088175366235
 31
0.0
  0
SOLID
  5
1553
330
EA7
100
AcDbEntity
  8
SUNPO
 62
     0
100
AcDbTrace
 10
671.2035061110636
 20
273.7088175366235
 30
0.0
 11
671.2035061110636
 21
271.9088175366235
 31
0.0
 12
665.8035061110637
 22
272.8088175366235
 32
0.0
 13
665.8035061110637
 23
272.8088175366235
 33
0.0
  0
SOLID
  5
1554
330
EA7
100
AcDbEntity
  8
SUNPO
 62
     0
100
AcDbTrace
 10
710.4035061110637
 20
273.7088175366235
 30
0.0
 11
710.4035061110637
 21
271.9088175366235
 31
0.0
 12
715.8035061110637
 22
272.8088175366235
 32
0.0
 13
715.8035061110637
 23
272.8088175366235
 33
0.0
  0
MTEXT
  5
1555
330
EA7
100
AcDbEntity
  8
SUNPO
 62
     0
100
AcDbMText
 10
690.8035061110637
 20
277.7588175366235
 30
0.0
 40
5.4
 41
0.0
 71
     5
 72
     1
  1
\A1;50
1001
ACAD
1000
MTEXTBEGIN
1070
    73
1070
     1
1070
    44
1040
1.0
1070
    74
1070
     0
1000
MTEXTEND
  0
POINT
  5
1556
330
EA7
100
AcDbEntity
  8
DEFPOINTS
 62
     0
100
AcDbPoint
 10
665.8035061110637
 20
207.9085631112789
 30
0.0
  0
POINT
  5
1557
330
EA7
100
AcDbEntity
  8
DEFPOINTS
 62
     0
100
AcDbPoint
 10
715.8035061110637
 20
223.9085631112789
 30
0.0
  0
POINT
  5
1558
330
EA7
100
AcDbEntity
  8
DEFPOINTS
 62
     0
100
AcDbPoint
 10
715.8035061110637
 20
272.8088175366235
 30
0.0
  0
ENDBLK
  5
EB2
330
EA7
100
AcDbEntity
  8
0
100
AcDbBlockEnd
  0
BLOCK
  5
EBE
330
EB3
100
AcDbEntity
  8
0
100
AcDbBlockBegin
  2
*D22
 70
     1
 10
0.0
 20
0.0
 30
0.0
  3
*D22
  1

  0
LINE
  5
1546
330
EB3
100
AcDbEntity
  8
SUNPO
 62
     0
100
AcDbLine
 10
717.6785061110637
 20
191.9085631112789
 30
0.0
 11
741.238847372131
 21
191.9085631112789
 31
0.0
  0
LINE
  5
1547
330
EB3
100
AcDbEntity
  8
SUNPO
 62
     0
100
AcDbLine
 10
717.6785061110637
 20
223.9085631112789
 30
0.0
 11
741.238847372131
 21
223.9085631112789
 31
0.0
  0
LINE
  5
1548
330
EB3
100
AcDbEntity
  8
SUNPO
 62
     0
100
AcDbLine
 10
738.838847372131
 20
197.3085631112789
 30
0.0
 11
738.838847372131
 21
218.5085631112789
 31
0.0
  0
LINE
  5
1549
330
EB3
100
AcDbEntity
  8
SUNPO
 62
     0
100
AcDbLine
 10
738.838847372131
 20
223.9085631112789
 30
0.0
 11
738.8388473721311
 21
257.2085631112789
 31
0.0
  0
SOLID
  5
154A
330
EB3
100
AcDbEntity
  8
SUNPO
 62
     0
100
AcDbTrace
 10
737.938847372131
 20
197.3085631112789
 30
0.0
 11
739.7388473721309
 21
197.3085631112789
 31
0.0
 12
738.838847372131
 22
191.9085631112789
 32
0.0
 13
738.838847372131
 23
191.9085631112789
 33
0.0
  0
SOLID
  5
154B
330
EB3
100
AcDbEntity
  8
SUNPO
 62
     0
100
AcDbTrace
 10
737.938847372131
 20
218.5085631112789
 30
0.0
 11
739.7388473721309
 21
218.5085631112789
 31
0.0
 12
738.838847372131
 22
223.9085631112789
 32
0.0
 13
738.838847372131
 23
223.9085631112789
 33
0.0
  0
MTEXT
  5
154C
330
EB3
100
AcDbEntity
  8
SUNPO
 62
     0
100
AcDbMText
 10
733.888847372131
 20
243.258563111279
 30
0.0
 40
5.4
 41
0.0
 71
     5
 72
     1
  1
\A1;%%c32h6
 11
0.0000000000000001
 21
1.0
 31
0.0
1001
ACAD
1000
MTEXTBEGIN
1070
    73
1070
     1
1070
    44
1040
1.0
1070
    74
1070
     0
1000
MTEXTEND
  0
POINT
  5
154D
330
EB3
100
AcDbEntity
  8
DEFPOINTS
 62
     0
100
AcDbPoint
 10
715.8035061110637
 20
191.9085631112789
 30
0.0
  0
POINT
  5
154E
330
EB3
100
AcDbEntity
  8
DEFPOINTS
 62
     0
100
AcDbPoint
 10
715.8035061110637
 20
223.9085631112789
 30
0.0
  0
POINT
  5
154F
330
EB3
100
AcDbEntity
  8
DEFPOINTS
 62
     0
100
AcDbPoint
 10
738.838847372131
 20
223.9085631112789
 30
0.0
  0
ENDBLK
  5
EBF
330
EB3
100
AcDbEntity
  8
0
100
AcDbBlockEnd
  0
BLOCK
  5
15B0
330
15AA
100
AcDbEntity
  8
0
100
AcDbBlockBegin
  2
*D25
 70
     1
 10
0.0
 20
0.0
 30
0.0
  3
*D25
  1

  0
LINE
  5
24A8
330
15AA
100
AcDbEntity
  8
SUNPO
 62
     0
100
AcDbLine
 10
628.575827000899
 20
170.1941111998213
 30
0.0
 11
539.0880618619962
 21
150.3002536451257
 31
0.0
  0
MTEXT
  5
24A9
330
15AA
100
AcDbEntity
  8
SUNPO
 62
     0
100
AcDbMText
 10
616.6452285439476
 20
172.6126839046163
 30
0.0
 40
5.4
 41
0.0
 71
     5
 72
     1
  1
\A1;\U+2205127
 11
0.9761692986070071
 21
0.2170103694690729
 31
0.0
  0
SOLID
  5
24AA
330
15AA
100
AcDbEntity
  8
SUNPO
 62
     0
100
AcDbTrace
 10
538.8927525294741
 20
151.178806013872
 30
0.0
 11
539.2833711945184
 21
149.4217012763793
 31
0.0
 12
533.8167476495184
 22
149.1283976499927
 32
0.0
 13
533.8167476495184
 23
149.1283976499927
 33
0.0
  0
POINT
  5
24AB
330
15AA
100
AcDbEntity
  8
DEFPOINTS
 62
     0
100
AcDbPoint
 10
533.8167476495184
 20
149.1283976499927
 30
0.0
  0
POINT
  5
24AC
330
15AA
100
AcDbEntity
  8
DEFPOINTS
 62
     0
100
AcDbPoint
 10
657.7902485726086
 20
176.688714572565
 30
0.0
  0
ENDBLK
  5
15B1
330
15AA
100
AcDbEntity
  8
0
100
AcDbBlockEnd
  0
BLOCK
  5
15DC
330
15D0
100
AcDbEntity
  8
0
100
AcDbBlockBegin
  2
*D26
 70
     1
 10
0.0
 20
0.0
 30
0.0
  3
*D26
  1

  0
LINE
  5
15DE
330
15D0
100
AcDbEntity
  8
SUNPO
 62
     0
100
AcDbLine
 10
269.513291646116
 20
162.9085631112789
 30
0.0
 11
268.988291646116
 21
162.9085631112789
 31
0.0
  0
LINE
  5
15DF
330
15D0
100
AcDbEntity
  8
SUNPO
 62
     0
100
AcDbLine
 10
269.513291646116
 20
149.9085631112789
 30
0.0
 11
268.988291646116
 21
149.9085631112789
 31
0.0
  0
LINE
  5
15E0
330
15D0
100
AcDbEntity
  8
SUNPO
 62
     0
100
AcDbLine
 10
271.388291646116
 20
168.3085631112789
 30
0.0
 11
271.388291646116
 21
173.7085631112789
 31
0.0
  0
LINE
  5
15E1
330
15D0
100
AcDbEntity
  8
SUNPO
 62
     0
100
AcDbLine
 10
271.388291646116
 20
144.5085631112789
 30
0.0
 11
271.388291646116
 21
139.1085631112789
 31
0.0
  0
LINE
  5
15E2
330
15D0
100
AcDbEntity
  8
SUNPO
 62
     0
100
AcDbLine
 10
271.388291646116
 20
162.9085631112789
 30
0.0
 11
271.388291646116
 21
149.9085631112789
 31
0.0
  0
SOLID
  5
15E3
330
15D0
100
AcDbEntity
  8
SUNPO
 62
     0
100
AcDbTrace
 10
270.488291646116
 20
168.3085631112789
 30
0.0
 11
272.288291646116
 21
168.3085631112789
 31
0.0
 12
271.388291646116
 22
162.9085631112789
 32
0.0
 13
271.388291646116
 23
162.9085631112789
 33
0.0
  0
SOLID
  5
15E4
330
15D0
100
AcDbEntity
  8
SUNPO
 62
     0
100
AcDbTrace
 10
270.488291646116
 20
144.5085631112789
 30
0.0
 11
272.288291646116
 21
144.5085631112789
 31
0.0
 12
271.388291646116
 22
149.9085631112789
 32
0.0
 13
271.388291646116
 23
149.9085631112789
 33
0.0
  0
MTEXT
  5
15E5
330
15D0
100
AcDbEntity
  8
SUNPO
 62
     0
100
AcDbMText
 10
266.438291646116
 20
156.4085631112789
 30
0.0
 40
5.4
 41
0.0
 71
     5
 72
     1
  1
\A1;13
 11
0.0000000000000001
 21
1.0
 31
0.0
1001
ACAD
1000
MTEXTBEGIN
1070
    73
1070
     1
1070
    44
1040
1.0
1070
    74
1070
     0
1000
MTEXTEND
  0
POINT
  5
15E6
330
15D0
100
AcDbEntity
  8
DEFPOINTS
 62
     0
100
AcDbPoint
 10
271.388291646116
 20
162.9085631112789
 30
0.0
  0
POINT
  5
15E7
330
15D0
100
AcDbEntity
  8
DEFPOINTS
 62
     0
100
AcDbPoint
 10
271.388291646116
 20
149.9085631112789
 30
0.0
  0
POINT
  5
15E8
330
15D0
100
AcDbEntity
  8
DEFPOINTS
 62
     0
100
AcDbPoint
 10
271.388291646116
 20
149.9085631112789
 30
0.0
  0
ENDBLK
  5
15DD
330
15D0
100
AcDbEntity
  8
0
100
AcDbBlockEnd
  0
BLOCK
  5
2350
330
2346
100
AcDbEntity
  8
0
100
AcDbBlockBegin
  2
*D79
 70
     1
 10
0.0
 20
0.0
 30
0.0
  3
*D79
  1

  0
LINE
  5
240E
330
2346
100
AcDbEntity
  8
SUNPO
 62
     0
100
AcDbLine
 10
164.7156049183918
 20
228.2835611112788
 30
0.0
 11
164.7156049183918
 21
293.0976510878869
 31
0.0
  0
LINE
  5
240F
330
2346
100
AcDbEntity
  8
SUNPO
 62
     0
100
AcDbLine
 10
114.7155979183917
 20
228.2835611112788
 30
0.0
 11
114.7155979183917
 21
293.0976510878869
 31
0.0
  0
LINE
  5
2410
330
2346
100
AcDbEntity
  8
SUNPO
 62
     0
100
AcDbLine
 10
159.3156049183918
 20
290.6976510878869
 30
0.0
 11
120.1155979183917
 21
290.6976510878869
 31
0.0
  0
SOLID
  5
2411
330
2346
100
AcDbEntity
  8
SUNPO
 62
     0
100
AcDbTrace
 10
159.3156049183918
 20
291.5976510878869
 30
0.0
 11
159.3156049183918
 21
289.7976510878869
 31
0.0
 12
164.7156049183918
 22
290.6976510878869
 32
0.0
 13
164.7156049183918
 23
290.6976510878869
 33
0.0
  0
SOLID
  5
2412
330
2346
100
AcDbEntity
  8
SUNPO
 62
     0
100
AcDbTrace
 10
120.1155979183917
 20
291.5976510878869
 30
0.0
 11
120.1155979183917
 21
289.7976510878869
 31
0.0
 12
114.7155979183917
 22
290.6976510878869
 32
0.0
 13
114.7155979183917
 23
290.6976510878869
 33
0.0
  0
MTEXT
  5
2413
330
2346
100
AcDbEntity
  8
SUNPO
 62
     0
100
AcDbMText
 10
139.7156014183917
 20
295.6476510878869
 30
0.0
 40
5.4
 41
0.0
 71
     5
 72
     1
  1
\A1;□50
1001
ACAD
1000
MTEXTBEGIN
1070
    73
1070
     1
1070
    44
1040
1.0
1070
    74
1070
     0
1000
MTEXTEND
  0
POINT
  5
2414
330
2346
100
AcDbEntity
  8
DEFPOINTS
 62
     0
100
AcDbPoint
 10
164.7156049183918
 20
226.4085611112788
 30
0.0
  0
POINT
  5
2415
330
2346
100
AcDbEntity
  8
DEFPOINTS
 62
     0
100
AcDbPoint
 10
114.7155979183917
 20
226.4085611112788
 30
0.0
  0
POINT
  5
2416
330
2346
100
AcDbEntity
  8
DEFPOINTS
 62
     0
100
AcDbPoint
 10
114.7155979183917
 20
290.6976510878869
 30
0.0
  0
ENDBLK
  5
2351
330
2346
100
AcDbEntity
  8
0
100
AcDbBlockEnd
  0
BLOCK
  5
235C
330
2352
100
AcDbEntity
  8
0
100
AcDbBlockBegin
  2
*D80
 70
     1
 10
0.0
 20
0.0
 30
0.0
  3
*D80
  1

  0
LINE
  5
2405
330
2352
100
AcDbEntity
  8
SUNPO
 62
     0
100
AcDbLine
 10
114.7155979183917
 20
228.2835611112789
 30
0.0
 11
114.7155979183917
 21
293.0976510878869
 31
0.0
  0
LINE
  5
2406
330
2352
100
AcDbEntity
  8
SUNPO
 62
     0
100
AcDbLine
 10
66.7156139183919
 20
193.7835631112789
 30
0.0
 11
66.7156139183919
 21
293.0976510878869
 31
0.0
  0
LINE
  5
2407
330
2352
100
AcDbEntity
  8
SUNPO
 62
     0
100
AcDbLine
 10
109.3155979183917
 20
290.6976510878869
 30
0.0
 11
72.11561391839191
 21
290.6976510878869
 31
0.0
  0
SOLID
  5
2408
330
2352
100
AcDbEntity
  8
SUNPO
 62
     0
100
AcDbTrace
 10
109.3155979183917
 20
291.5976510878869
 30
0.0
 11
109.3155979183917
 21
289.7976510878869
 31
0.0
 12
114.7155979183917
 22
290.6976510878869
 32
0.0
 13
114.7155979183917
 23
290.6976510878869
 33
0.0
  0
SOLID
  5
2409
330
2352
100
AcDbEntity
  8
SUNPO
 62
     0
100
AcDbTrace
 10
72.11561391839191
 20
291.5976510878869
 30
0.0
 11
72.11561391839191
 21
289.7976510878869
 31
0.0
 12
66.7156139183919
 22
290.6976510878869
 32
0.0
 13
66.7156139183919
 23
290.6976510878869
 33
0.0
  0
MTEXT
  5
240A
330
2352
100
AcDbEntity
  8
SUNPO
 62
     0
100
AcDbMText
 10
90.71560591839181
 20
295.6476510878869
 30
0.0
 40
5.4
 41
0.0
 71
     5
 72
     1
  1
\A1;48
1001
ACAD
1000
MTEXTBEGIN
1070
    73
1070
     1
1070
    44
1040
1.0
1070
    74
1070
     0
1000
MTEXTEND
  0
POINT
  5
240B
330
2352
100
AcDbEntity
  8
DEFPOINTS
 62
     0
100
AcDbPoint
 10
114.7155979183917
 20
226.4085611112789
 30
0.0
  0
POINT
  5
240C
330
2352
100
AcDbEntity
  8
DEFPOINTS
 62
     0
100
AcDbPoint
 10
66.7156139183919
 20
191.9085631112789
 30
0.0
  0
POINT
  5
240D
330
2352
100
AcDbEntity
  8
DEFPOINTS
 62
     0
100
AcDbPoint
 10
66.7156139183919
 20
290.6976510878869
 30
0.0
  0
ENDBLK
  5
235D
330
2352
100
AcDbEntity
  8
0
100
AcDbBlockEnd
  0
BLOCK
  5
2368
330
235E
100
AcDbEntity
  8
0
100
AcDbBlockBegin
  2
*D81
 70
     1
 10
0.0
 20
0.0
 30
0.0
  3
*D81
  1

  0
LINE
  5
237C
330
235E
100
AcDbEntity
  8
SUNPO
 62
     0
100
AcDbLine
 10
165.5906049183918
 20
227.4085611112788
 30
0.0
 11
189.8541864589864
 21
227.4085611112788
 31
0.0
  0
LINE
  5
237D
330
235E
100
AcDbEntity
  8
SUNPO
 62
     0
100
AcDbLine
 10
164.0906049183918
 20
194.9085631112789
 30
0.0
 11
189.8541864589864
 21
194.9085631112789
 31
0.0
  0
LINE
  5
237E
330
235E
100
AcDbEntity
  8
SUNPO
 62
     0
100
AcDbLine
 10
187.4541864589864
 20
222.0085611112788
 30
0.0
 11
187.4541864589864
 21
200.3085631112789
 31
0.0
  0
SOLID
  5
237F
330
235E
100
AcDbEntity
  8
SUNPO
 62
     0
100
AcDbTrace
 10
186.5541864589864
 20
222.0085611112788
 30
0.0
 11
188.3541864589864
 21
222.0085611112788
 31
0.0
 12
187.4541864589864
 22
227.4085611112788
 32
0.0
 13
187.4541864589864
 23
227.4085611112788
 33
0.0
  0
SOLID
  5
2380
330
235E
100
AcDbEntity
  8
SUNPO
 62
     0
100
AcDbTrace
 10
186.5541864589864
 20
200.3085631112789
 30
0.0
 11
188.3541864589864
 21
200.3085631112789
 31
0.0
 12
187.4541864589864
 22
194.9085631112789
 32
0.0
 13
187.4541864589864
 23
194.9085631112789
 33
0.0
  0
MTEXT
  5
2381
330
235E
100
AcDbEntity
  8
SUNPO
 62
     0
100
AcDbMText
 10
182.5041864589864
 20
211.1585621112789
 30
0.0
 40
5.4
 41
0.0
 71
     5
 72
     1
  1
\A1;32.5
 11
0.0000000000000001
 21
1.0
 31
0.0
1001
ACAD
1000
MTEXTBEGIN
1070
    73
1070
     1
1070
    44
1040
1.0
1070
    74
1070
     0
1000
MTEXTEND
  0
POINT
  5
2382
330
235E
100
AcDbEntity
  8
DEFPOINTS
 62
     0
100
AcDbPoint
 10
163.7156049183918
 20
227.4085611112788
 30
0.0
  0
POINT
  5
2383
330
235E
100
AcDbEntity
  8
DEFPOINTS
 62
     0
100
AcDbPoint
 10
162.2156049183918
 20
194.9085631112789
 30
0.0
  0
POINT
  5
2384
330
235E
100
AcDbEntity
  8
DEFPOINTS
 62
     0
100
AcDbPoint
 10
187.4541864589864
 20
194.9085631112789
 30
0.0
  0
ENDBLK
  5
2369
330
235E
100
AcDbEntity
  8
0
100
AcDbBlockEnd
  0
ENDSEC
  0
SECTION
  2
ENTITIES
  0
ARC
  5
68C
330
2
100
AcDbEntity
  8
0
100
AcDbCircle
 10
875.9567578120559
 20
207.9085631112789
 30
0.0
 40
16.0
100
AcDbArc
 50
198.2099
 51
161.7900999999999
  0
LINE
  5
68D
330
2
100
AcDbEntity
  8
0
100
AcDbLine
 10
856.9567578120558
 20
202.9085631112788
 30
0.0
 11
864.9567578120558
 21
202.9085631112788
 31
0.0
  0
LINE
  5
68E
330
2
100
AcDbEntity
  8
0
100
AcDbLine
 10
856.9567578120558
 20
212.9085631112789
 30
0.0
 11
864.9567578120558
 21
212.9085631112789
 31
0.0
  0
ARC
  5
68F
330
2
100
AcDbEntity
  8
0
100
AcDbCircle
 10
875.9567578120559
 20
180.9085631112789
 30
0.0
 40
88.0
100
AcDbArc
 50
48.21794900000014
 51
131.8105010000001
  0
ARC
  5
690
330
2
100
AcDbEntity
  8
0
100
AcDbCircle
 10
875.9567578120559
 20
180.9085631112789
 30
0.0
 40
88.0
100
AcDbArc
 50
228.1898039999999
 51
311.8107909999999
  0
LINE
  5
691
330
2
100
AcDbEntity
  8
0
100
AcDbLine
 10
862.1149608120559
 20
133.5784781112789
 30
0.0
 11
859.6421518120557
 21
133.5784781112789
 31
0.0
  0
LINE
  5
692
330
2
100
AcDbEntity
  8
0
100
AcDbLine
 10
858.6813668120559
 20
146.1585561112789
 30
0.0
 11
865.069366812056
 21
146.1585561112789
 31
0.0
  0
LINE
  5
693
330
2
100
AcDbEntity
  8
0
100
AcDbLine
 10
864.2027598120558
 20
144.2659781112789
 30
0.0
 11
859.6249698120558
 21
144.2659781112789
 31
0.0
  0
LINE
  5
694
330
2
100
AcDbEntity
  8
0
100
AcDbLine
 10
863.7297678120559
 20
131.9085561112789
 30
0.0
 11
858.7893688120558
 21
131.9085561112789
 31
0.0
  0
LINE
  5
695
330
2
100
AcDbEntity
  8
0
100
AcDbLine
 10
852.1993718120558
 20
90.90855611127892
 30
0.0
 11
899.7141428120558
 21
90.90855611127892
 31
0.0
  0
LINE
  5
696
330
2
100
AcDbEntity
  8
0
100
AcDbLine
 10
850.4567578120559
 20
119.9085561112789
 30
0.0
 11
901.4567578120558
 21
119.9085561112789
 31
0.0
  0
LINE
  5
697
330
2
100
AcDbEntity
  8
0
100
AcDbLine
 10
901.4567578120558
 20
117.0085541112789
 30
0.0
 11
850.4567578120559
 21
117.0085541112789
 31
0.0
  0
ARC
  5
698
330
2
100
AcDbEntity
  8
0
100
AcDbCircle
 10
875.9567578120559
 20
207.9085631112789
 30
0.0
 40
41.09999799999999
100
AcDbArc
 50
167.4768070000002
 51
12.52309999999996
  0
ARC
  5
699
330
2
100
AcDbEntity
  8
0
100
AcDbCircle
 10
875.9567578120559
 20
207.9085631112789
 30
0.0
 40
44.0
100
AcDbArc
 50
12.52309999999996
 51
167.4768070000002
  0
CIRCLE
  5
69A
330
2
100
AcDbEntity
  8
0
100
AcDbCircle
 10
875.9567578120559
 20
207.9085631112789
 30
0.0
 40
39.0
  0
LINE
  5
69B
330
2
100
AcDbEntity
  8
0
100
AcDbLine
 10
902.4601448120559
 20
272.9085631112789
 30
0.0
 11
849.4533698120559
 21
272.9085631112789
 31
0.0
  0
LINE
  5
69C
330
2
100
AcDbEntity
  8
0
100
AcDbLine
 10
951.9567578120559
 20
85.90855611127892
 30
0.0
 11
799.9567578120559
 21
85.90855611127892
 31
0.0
  0
LINE
  5
69D
330
2
100
AcDbEntity
  8
0
100
AcDbLine
 10
951.9567578120559
 20
67.90855611127892
 30
0.0
 11
799.9567578120559
 21
67.90855611127892
 31
0.0
  0
LINE
  5
69E
330
2
100
AcDbEntity
  8
CENTER
100
AcDbLine
 10
931.0291154114398
 20
207.9085631112789
 30
0.0
 11
820.8843839333527
 21
207.9085631112789
 31
0.0
  0
LINE
  5
69F
330
2
100
AcDbEntity
  8
CENTER
100
AcDbLine
 10
56.71560941839152
 20
465.966486111279
 30
0.0
 11
471.2158229183917
 21
465.9664861112788
 31
0.0
  0
LINE
  5
6A0
330
2
100
AcDbEntity
  8
0
100
AcDbLine
 10
326.7655669183916
 20
390.9664861112789
 30
0.0
 11
443.6656519183919
 21
390.9664861112788
 31
0.0
  0
LINE
  5
6A1
330
2
100
AcDbEntity
  8
0
100
AcDbLine
 10
367.7156089183918
 20
530.9664861112789
 30
0.0
 11
402.7156089183917
 21
530.9664861112789
 31
0.0
  0
LINE
  5
6A2
330
2
100
AcDbEntity
  8
0
100
AcDbLine
 10
404.2156089183918
 20
585.9664861112789
 30
0.0
 11
369.2156089183918
 21
585.9664861112789
 31
0.0
  0
LINE
  5
6A3
330
2
100
AcDbEntity
  8
0
100
AcDbLine
 10
349.9567899183919
 20
403.966486111279
 30
0.0
 11
420.4744289183918
 21
403.9664861112788
 31
0.0
  0
LINE
  5
6A4
330
2
100
AcDbEntity
  8
0
100
AcDbLine
 10
349.9567899183919
 20
527.966486111279
 30
0.0
 11
420.4744289183918
 21
527.966486111279
 31
0.0
  0
LINE
  5
6A5
330
2
100
AcDbEntity
  8
0
100
AcDbLine
 10
457.4822409183918
 20
420.9664861112789
 30
0.0
 11
312.5522489183915
 21
420.966486111279
 31
0.0
  0
LINE
  5
6A6
330
2
100
AcDbEntity
  8
0
100
AcDbLine
 10
312.5522489183917
 20
510.9664861112789
 30
0.0
 11
457.4822409183918
 21
510.9664861112789
 31
0.0
  0
LINE
  5
6A7
330
2
100
AcDbEntity
  8
CENTER
100
AcDbLine
 10
595.8034981110637
 20
57.90855611127892
 30
0.0
 11
595.8034981110637
 21
282.9085631112789
 31
0.0
  0
ARC
  5
6A8
330
2
100
AcDbEntity
  8
0
100
AcDbCircle
 10
644.8035061110637
 20
89.90855611127892
 30
0.0
 40
4.0
100
AcDbArc
 50
180.0
 51
270.0
  0
ARC
  5
6A9
330
2
100
AcDbEntity
  8
0
100
AcDbCircle
 10
645.8035061110637
 20
255.6497741112789
 30
0.0
 40
5.0
100
AcDbArc
 50
180.0
 51
253.6107940000003
  0
ARC
  5
6AA
330
2
100
AcDbEntity
  8
0
100
AcDbCircle
 10
645.8035061110637
 20
113.2525731112789
 30
0.0
 40
5.0
100
AcDbArc
 50
106.172501
 51
180.0
  0
LINE
  5
6AB
330
2
100
AcDbEntity
  8
0
100
AcDbLine
 10
668.7145011110636
 20
86.25673511127894
 30
0.0
 11
643.3102961110637
 21
90.49077811127892
 31
0.0
  0
LINE
  5
6AC
330
2
100
AcDbEntity
  8
0
100
AcDbLine
 10
625.8034981110637
 20
67.90855611127892
 30
0.0
 11
670.8035061110637
 21
67.90855611127892
 31
0.0
  0
LINE
  5
6AD
330
2
100
AcDbEntity
  8
CENTER
100
AcDbLine
 10
523.8035021110637
 20
207.9085631112789
 30
0.0
 11
725.8035061110636
 21
207.9085631112789
 31
0.0
  0
LINE
  5
6AE
330
2
100
AcDbEntity
  8
CENTER
100
AcDbLine
 10
521.8034981110637
 20
162.9085561112789
 30
0.0
 11
669.8034981110637
 21
162.9085561112789
 31
0.0
  0
LINE
  5
6B0
330
2
100
AcDbEntity
  8
0
100
AcDbLine
 10
550.8035021110637
 20
269.1748291112789
 30
0.0
 11
550.8035021110637
 21
67.90855611127892
 31
0.0
  0
LINE
  5
6B1
330
2
100
AcDbEntity
  8
0
100
AcDbLine
 10
540.8035021110637
 20
123.6645521112789
 30
0.0
 11
540.8035021110637
 21
211.8189481112789
 31
0.0
  0
LINE
  5
6B2
330
2
100
AcDbEntity
  8
0
100
AcDbLine
 10
640.8035061110637
 20
269.1753171112789
 30
0.0
 11
640.8035061110637
 21
67.90855611127892
 31
0.0
  0
LINE
  5
6B4
330
2
100
AcDbEntity
  8
0
100
AcDbLine
 10
522.8925011110637
 20
86.25671511127894
 30
0.0
 11
548.2967001110637
 21
90.49075511127893
 31
0.0
  0
LINE
  5
6B5
330
2
100
AcDbEntity
  8
0
100
AcDbLine
 10
523.3035011110636
 20
85.90855611127892
 30
0.0
 11
546.8035021110637
 21
85.90855611127892
 31
0.0
  0
LINE
  5
6B6
330
2
100
AcDbEntity
  8
0
100
AcDbLine
 10
520.8035011110637
 20
67.90855611127892
 30
0.0
 11
565.8035021110637
 21
67.90855611127892
 31
0.0
  0
ARC
  5
6B7
330
2
100
AcDbEntity
  8
0
100
AcDbCircle
 10
523.3035011110636
 20
83.79075811127894
 30
0.0
 40
2.5
100
AcDbArc
 50
99.46275299999982
 51
180.0
  0
ARC
  5
6B8
330
2
100
AcDbEntity
  8
0
100
AcDbCircle
 10
523.3035011110636
 20
83.40857511127893
 30
0.0
 40
2.5
100
AcDbArc
 50
90.0
 51
180.0
  0
LINE
  5
6B9
330
2
100
AcDbEntity
  8
HIDS
100
AcDbLine
 10
529.3035021110637
 20
85.90855611127892
 30
0.0
 11
529.3035021110637
 21
67.90855611127892
 31
0.0
  0
LINE
  5
6BA
330
2
100
AcDbEntity
  8
0
100
AcDbLine
 10
520.8035011110637
 20
83.79073511127893
 30
0.0
 11
520.8035011110637
 21
67.90855611127892
 31
0.0
  0
LINE
  5
6BB
330
2
100
AcDbEntity
  8
CENTER
100
AcDbLine
 10
535.8035021110636
 20
90.90855611127892
 30
0.0
 11
535.8035021110636
 21
62.90855611127892
 31
0.0
  0
LINE
  5
6BC
330
2
100
AcDbEntity
  8
0
100
AcDbLine
 10
567.3035021110637
 20
69.40855611127893
 30
0.0
 11
624.3034981110637
 21
69.40855611127893
 31
0.0
  0
LINE
  5
6BD
330
2
100
AcDbEntity
  8
HIDS
100
AcDbLine
 10
542.3035021110637
 20
85.90855611127892
 30
0.0
 11
542.3035021110637
 21
67.90855611127892
 31
0.0
  0
ARC
  5
6BE
330
2
100
AcDbEntity
  8
0
100
AcDbCircle
 10
546.8035021110637
 20
89.90851811127891
 30
0.0
 40
4.0
100
AcDbArc
 50
270.0
 51
0.0
  0
ARC
  5
6BF
330
2
100
AcDbEntity
  8
0
100
AcDbCircle
 10
547.8035021110637
 20
93.44993811127892
 30
0.0
 40
3.0
100
AcDbArc
 50
279.4625170000001
 51
0.0
  0
LINE
  5
6C0
330
2
100
AcDbEntity
  8
0
100
AcDbLine
 10
565.8035021110637
 20
67.90855611127892
 30
0.0
 11
567.3035021110637
 21
69.40855611127893
 31
0.0
  0
LINE
  5
6C1
330
2
100
AcDbEntity
  8
0
100
AcDbLine
 10
544.4109011110636
 20
118.8624131112788
 30
0.0
 11
547.1960991110637
 21
118.0546971112789
 31
0.0
  0
ARC
  5
6C2
330
2
100
AcDbEntity
  8
0
100
AcDbCircle
 10
545.8035021110637
 20
123.6645981112789
 30
0.0
 40
5.0
100
AcDbArc
 50
180.0
 51
253.8282009999997
  0
ARC
  5
6C3
330
2
100
AcDbEntity
  8
0
100
AcDbCircle
 10
545.8035021110637
 20
113.2525351112789
 30
0.0
 40
5.0
100
AcDbArc
 50
0.0
 51
73.82791899999978
  0
ARC
  5
6C4
330
2
100
AcDbEntity
  8
0
100
AcDbCircle
 10
548.8035021110637
 20
113.8872161112789
 30
0.0
 40
2.0
100
AcDbArc
 50
30.94791
 51
53.21712100000005
  0
ARC
  5
6C5
330
2
100
AcDbEntity
  8
0
100
AcDbCircle
 10
554.7913031110637
 20
121.8963331112789
 30
0.0
 40
8.0
100
AcDbArc
 50
211.0014039999998
 51
233.2169950000002
  0
LINE
  5
6C6
330
2
100
AcDbEntity
  8
0
100
AcDbLine
 10
625.8034981110637
 20
67.90855611127892
 30
0.0
 11
624.3034981110637
 21
69.40855611127893
 31
0.0
  0
ARC
  5
6C7
330
2
100
AcDbEntity
  8
0
100
AcDbCircle
 10
643.8035061110637
 20
93.44997611127894
 30
0.0
 40
3.0
100
AcDbArc
 50
180.0
 51
260.5379030000001
  0
ARC
  5
6C8
330
2
100
AcDbEntity
  8
0
100
AcDbCircle
 10
642.8035061110636
 20
113.8872161112789
 30
0.0
 40
2.0
100
AcDbArc
 50
126.7828829999998
 51
149.0520939999995
  0
ARC
  5
6C9
330
2
100
AcDbEntity
  8
0
100
AcDbCircle
 10
636.8156981110637
 20
121.8963331112789
 30
0.0
 40
8.0
100
AcDbArc
 50
306.7830009999998
 51
328.9986000000002
  0
LINE
  5
6CA
330
2
100
AcDbEntity
  8
0
100
AcDbLine
 10
533.8035021110637
 20
172.6497511112789
 30
0.0
 11
533.8035021110637
 21
243.1673831112789
 31
0.0
  0
ARC
  5
6CB
330
2
100
AcDbEntity
  8
0
100
AcDbCircle
 10
536.8035021110637
 20
163.8567751112789
 30
0.0
 40
4.0
100
AcDbArc
 50
0.0
 51
73.61064899999971
  0
ARC
  5
6CC
330
2
100
AcDbEntity
  8
0
100
AcDbCircle
 10
538.8035021110637
 20
172.6497821112789
 30
0.0
 40
5.0
100
AcDbArc
 50
180.0
 51
253.6107940000003
  0
LINE
  5
6CD
330
2
100
AcDbEntity
  8
0
100
AcDbLine
 10
537.3927011110636
 20
167.8529221112789
 30
0.0
 11
537.9321011110637
 21
167.6942541112789
 31
0.0
  0
LINE
  5
6CE
330
2
100
AcDbEntity
  8
0
100
AcDbLine
 10
553.3779001110636
 20
240.4085631112788
 30
0.0
 11
638.0561001110636
 21
240.4085631112788
 31
0.0
  0
LINE
  5
6CF
330
2
100
AcDbEntity
  8
0
100
AcDbLine
 10
553.7510991110637
 20
272.1743711112789
 30
0.0
 11
595.8034981110637
 21
272.9085631112789
 31
0.0
  0
ARC
  5
6D1
330
2
100
AcDbEntity
  8
0
100
AcDbCircle
 10
538.8035021110637
 20
243.1673981112788
 30
0.0
 40
5.0
100
AcDbArc
 50
106.3898999999998
 51
180.0
  0
LINE
  5
6D2
330
2
100
AcDbEntity
  8
0
100
AcDbLine
 10
547.2143031110637
 20
250.8529151112789
 30
0.0
 11
537.3927011110636
 21
247.9641821112789
 31
0.0
  0
ARC
  5
6D3
330
2
100
AcDbEntity
  8
0
100
AcDbCircle
 10
545.8035021110637
 20
255.6497281112789
 30
0.0
 40
5.0
100
AcDbArc
 50
286.3897710000003
 51
0.0
  0
ARC
  5
6D4
330
2
100
AcDbEntity
  8
0
100
AcDbCircle
 10
553.8035021110637
 20
269.1748291112789
 30
0.0
 40
3.0
100
AcDbArc
 50
91.00060300000007
 51
180.0
  0
LINE
  5
6D5
330
2
100
AcDbEntity
  8
0
100
AcDbLine
 10
637.8559041110637
 20
272.1748601112789
 30
0.0
 11
595.8034981110637
 21
272.9085631112789
 31
0.0
  0
ARC
  5
6D6
330
2
100
AcDbEntity
  8
0
100
AcDbCircle
 10
637.8035061110637
 20
269.1753021112789
 30
0.0
 40
3.0
100
AcDbArc
 50
0.0
 51
89.00057999999992
  0
ARC
  5
6D7
330
2
100
AcDbEntity
  8
0
100
AcDbCircle
 10
843.9567578120559
 20
145.1314711112789
 30
0.0
 40
40.0
100
AcDbArc
 50
180.0
 51
228.1900939999998
  0
LINE
  5
6D8
330
2
100
AcDbEntity
  8
0
100
AcDbLine
 10
858.6813668120559
 20
146.1585561112789
 30
0.0
 11
856.9567578120558
 21
143.9500901112789
 31
0.0
  0
ARC
  5
6D9
330
2
100
AcDbEntity
  8
0
100
AcDbCircle
 10
850.4567578120559
 20
148.9085561112789
 30
0.0
 40
31.89999999999999
100
AcDbArc
 50
167.4768070000002
 51
270.0
  0
ARC
  5
6DA
330
2
100
AcDbEntity
  8
0
100
AcDbCircle
 10
850.4567578120559
 20
148.9085561112789
 30
0.0
 40
29.0
100
AcDbArc
 50
167.4768070000002
 51
270.0
  0
LINE
  5
6DB
330
2
100
AcDbEntity
  8
0
100
AcDbLine
 10
799.9567578120559
 20
236.2141211112789
 30
0.0
 11
799.9567578120559
 21
67.90855611127892
 31
0.0
  0
LINE
  5
6DD
330
2
100
AcDbEntity
  8
0
100
AcDbLine
 10
650.8035061110637
 20
123.6645751112789
 30
0.0
 11
650.8035061110637
 21
211.8189481112789
 31
0.0
  0
LINE
  5
6DE
330
2
100
AcDbEntity
  8
CENTER
100
AcDbLine
 10
655.8035061110636
 20
90.90855611127892
 30
0.0
 11
655.8035061110636
 21
62.90855611127892
 31
0.0
  0
ARC
  5
6DF
330
2
100
AcDbEntity
  8
0
100
AcDbCircle
 10
668.3035061110636
 20
83.79073511127893
 30
0.0
 40
2.5
100
AcDbArc
 50
0.0
 51
80.53768199999993
  0
ARC
  5
6E0
330
2
100
AcDbEntity
  8
0
100
AcDbCircle
 10
668.3035061110636
 20
83.40855611127892
 30
0.0
 40
2.5
100
AcDbArc
 50
0.0
 51
90.0
  0
LINE
  5
6E1
330
2
100
AcDbEntity
  8
HIDS
100
AcDbLine
 10
649.3035061110637
 20
85.90855611127892
 30
0.0
 11
649.3035061110637
 21
67.90855611127892
 31
0.0
  0
LINE
  5
6E2
330
2
100
AcDbEntity
  8
HIDS
100
AcDbLine
 10
662.3035061110637
 20
85.90855611127892
 30
0.0
 11
662.3035061110637
 21
67.90855611127892
 31
0.0
  0
LINE
  5
6E3
330
2
100
AcDbEntity
  8
0
100
AcDbLine
 10
670.8035061110637
 20
83.79073511127893
 30
0.0
 11
670.8035061110637
 21
67.90855611127892
 31
0.0
  0
LINE
  5
6E4
330
2
100
AcDbEntity
  8
0
100
AcDbLine
 10
668.3035061110636
 20
85.90855611127892
 30
0.0
 11
644.8035061110637
 21
85.90855611127892
 31
0.0
  0
ARC
  5
6E5
330
2
100
AcDbEntity
  8
0
100
AcDbCircle
 10
645.8035061110637
 20
123.6645521112789
 30
0.0
 40
5.0
100
AcDbArc
 50
286.1723019999999
 51
0.0
  0
LINE
  5
6E6
330
2
100
AcDbEntity
  8
0
100
AcDbLine
 10
647.1960991110637
 20
118.8624131112788
 30
0.0
 11
644.4108971110637
 21
118.0546971112789
 31
0.0
  0
LINE
  5
6E7
330
2
100
AcDbEntity
  8
CENTER
100
AcDbLine
 10
828.4567578120556
 20
90.90855611127892
 30
0.0
 11
828.4567578120558
 21
62.90855611127892
 31
0.0
  0
LINE
  5
6E8
330
2
100
AcDbEntity
  8
HIDS
100
AcDbLine
 10
821.9567578120559
 20
85.90855611127892
 30
0.0
 11
821.9567578120559
 21
67.90855611127892
 31
0.0
  0
LINE
  5
6E9
330
2
100
AcDbEntity
  8
0
100
AcDbLine
 10
813.9567578120558
 20
83.84199711127894
 30
0.0
 11
813.9567578120558
 21
67.90855611127892
 31
0.0
  0
LINE
  5
6EA
330
2
100
AcDbEntity
  8
HIDS
100
AcDbLine
 10
834.9567578120559
 20
85.90855611127892
 30
0.0
 11
834.9567578120559
 21
67.90855611127892
 31
0.0
  0
ARC
  5
6EB
330
2
100
AcDbEntity
  8
0
100
AcDbCircle
 10
843.8857428120559
 20
90.90855611127892
 30
0.0
 40
5.0
100
AcDbArc
 50
270.0
 51
315.0
  0
ARC
  5
6EC
330
2
100
AcDbEntity
  8
0
100
AcDbCircle
 10
849.9567578120558
 20
86.90855611127892
 30
0.0
 40
1.0
100
AcDbArc
 50
270.0
 51
0.0
  0
ARC
  5
6ED
330
2
100
AcDbEntity
  8
0
100
AcDbCircle
 10
852.1993718120558
 20
87.90855611127893
 30
0.0
 40
3.0
100
AcDbArc
 50
90.0
 51
134.9998019999995
  0
LINE
  5
6EE
330
2
100
AcDbEntity
  8
0
100
AcDbLine
 10
850.9567578120559
 20
89.97267711127893
 30
0.0
 11
850.9567578120559
 21
86.90855611127892
 31
0.0
  0
LINE
  5
6EF
330
2
100
AcDbEntity
  8
0
100
AcDbLine
 10
850.0781568120558
 20
90.02987511127889
 30
0.0
 11
847.4211438120558
 21
87.37301411127893
 31
0.0
  0
LINE
  5
6F0
330
2
100
AcDbEntity
  8
0
100
AcDbLine
 10
858.5523688120558
 20
142.9359761112789
 30
0.0
 11
858.5523688120558
 21
134.7263961112789
 31
0.0
  0
LINE
  5
6F1
330
2
100
AcDbEntity
  8
0
100
AcDbLine
 10
856.9567578120558
 20
143.9500901112789
 30
0.0
 11
856.9567578120558
 21
133.7576771112789
 31
0.0
  0
LINE
  5
6F2
330
2
100
AcDbEntity
  8
0
100
AcDbLine
 10
856.9567578120558
 20
133.7576771112789
 30
0.0
 11
858.7893688120558
 21
131.9085561112789
 31
0.0
  0
LINE
  5
6F3
330
2
100
AcDbEntity
  8
0
100
AcDbLine
 10
858.5523688120558
 20
134.7263961112789
 30
0.0
 11
859.6421518120557
 21
133.5784781112789
 31
0.0
  0
LINE
  5
6F4
330
2
100
AcDbEntity
  8
0
100
AcDbLine
 10
859.6249698120558
 20
144.2659781112789
 30
0.0
 11
858.5523688120558
 21
142.9359761112789
 31
0.0
  0
LINE
  5
6F5
330
2
100
AcDbEntity
  8
0
100
AcDbLine
 10
660.8035061110637
 20
225.4085631112789
 30
0.0
 11
660.8035061110637
 21
190.4085631112789
 31
0.0
  0
LINE
  5
6F6
330
2
100
AcDbEntity
  8
0
100
AcDbLine
 10
657.8035061110637
 20
172.6497511112789
 30
0.0
 11
657.8035061110637
 21
243.1673831112789
 31
0.0
  0
LINE
  5
6F7
330
2
100
AcDbEntity
  8
0
100
AcDbLine
 10
670.8035061110637
 20
202.9085631112788
 30
0.0
 11
715.8035061110637
 21
202.9085631112788
 31
0.0
  0
LINE
  5
6F8
330
2
100
AcDbEntity
  8
0
100
AcDbLine
 10
670.8035061110637
 20
212.9085631112789
 30
0.0
 11
715.8035061110637
 21
212.9085631112789
 31
0.0
  0
LINE
  5
6F9
330
2
100
AcDbEntity
  8
0
100
AcDbLine
 10
660.8035061110637
 20
191.9085631112789
 30
0.0
 11
715.8035061110637
 21
191.9085631112789
 31
0.0
  0
LINE
  5
6FA
330
2
100
AcDbEntity
  8
0
100
AcDbLine
 10
660.8035061110637
 20
223.9085631112789
 30
0.0
 11
715.8035061110637
 21
223.9085631112789
 31
0.0
  0
ARC
  5
6FB
330
2
100
AcDbEntity
  8
0
100
AcDbCircle
 10
654.8035061110637
 20
163.8568061112789
 30
0.0
 40
4.0
100
AcDbArc
 50
106.3899989999996
 51
180.0
  0
ARC
  5
6FC
330
2
100
AcDbEntity
  8
0
100
AcDbCircle
 10
652.8035061110637
 20
172.6497441112788
 30
0.0
 40
5.0
100
AcDbArc
 50
286.3896790000003
 51
0.0
  0
LINE
  5
6FD
330
2
100
AcDbEntity
  8
0
100
AcDbLine
 10
654.2143031110636
 20
167.8529221112789
 30
0.0
 11
653.6749051110636
 21
167.6942381112789
 31
0.0
  0
ARC
  5
6FE
330
2
100
AcDbEntity
  8
0
100
AcDbCircle
 10
670.8035061110637
 20
207.9085631112789
 30
0.0
 40
5.0
100
AcDbArc
 50
90.0
 51
270.0
  0
LINE
  5
6FF
330
2
100
AcDbEntity
  8
0
100
AcDbLine
 10
657.8035061110637
 20
190.4085631112789
 30
0.0
 11
660.8035061110637
 21
190.4085631112789
 31
0.0
  0
LINE
  5
700
330
2
100
AcDbEntity
  8
0
100
AcDbLine
 10
715.8035061110637
 20
191.9085631112789
 30
0.0
 11
715.8035061110637
 21
223.9085631112789
 31
0.0
  0
ARC
  5
701
330
2
100
AcDbEntity
  8
0
100
AcDbCircle
 10
652.8035061110637
 20
243.1673521112788
 30
0.0
 40
5.0
100
AcDbArc
 50
0.0
 51
73.61052699999977
  0
LINE
  5
702
330
2
100
AcDbEntity
  8
0
100
AcDbLine
 10
657.8035061110637
 20
225.4085631112789
 30
0.0
 11
660.8035061110637
 21
225.4085631112789
 31
0.0
  0
LINE
  5
703
330
2
100
AcDbEntity
  8
0
100
AcDbLine
 10
654.2143031110636
 20
247.9641971112789
 30
0.0
 11
644.3926931110636
 21
250.8529151112789
 31
0.0
  0
ARC
  5
704
330
2
100
AcDbEntity
  8
0
100
AcDbCircle
 10
843.9567578120559
 20
216.6856631112789
 30
0.0
 40
40.0
100
AcDbArc
 50
131.8108060000002
 51
180.0
  0
LINE
  5
705
330
2
100
AcDbEntity
  8
0
100
AcDbLine
 10
803.9567578120559
 20
216.6856631112789
 30
0.0
 11
803.9567578120559
 21
145.1314791112789
 31
0.0
  0
LINE
  5
706
330
2
100
AcDbEntity
  8
0
100
AcDbLine
 10
835.8345648120558
 20
216.8205201112789
 30
0.0
 11
822.1467598120558
 21
155.1967941112789
 31
0.0
  0
LINE
  5
707
330
2
100
AcDbEntity
  8
0
100
AcDbLine
 10
833.0035718120559
 20
217.4493351112789
 30
0.0
 11
819.3157658120558
 21
155.8256171112789
 31
0.0
  0
LINE
  5
708
330
2
100
AcDbEntity
  8
0
100
AcDbLine
 10
856.9567578120558
 20
212.9085631112789
 30
0.0
 11
856.9567578120558
 21
202.9085631112788
 31
0.0
  0
LINE
  5
709
330
2
100
AcDbEntity
  8
0
100
AcDbLine
 10
803.4067698120558
 20
242.7941831112789
 30
0.0
 11
844.9033518120559
 21
271.4886111112789
 31
0.0
  0
ARC
  5
70A
330
2
100
AcDbEntity
  8
0
100
AcDbCircle
 10
807.9567578120558
 20
236.2140751112789
 30
0.0
 40
8.0
100
AcDbArc
 50
124.6633
 51
180.0
  0
ARC
  5
70B
330
2
100
AcDbEntity
  8
0
100
AcDbCircle
 10
849.4533698120559
 20
264.9085631112789
 30
0.0
 40
8.0
100
AcDbArc
 50
90.0
 51
124.6633
  0
TEXT
  5
70C
330
2
100
AcDbEntity
  8
TITLE
100
AcDbText
 10
536.106330339143
 20
491.2563302238108
 30
0.0
 40
7.5
  1
HLMN-32L-1200~1800-T40T
 41
0.8
100
AcDbText
  0
LINE
  5
70D
330
2
100
AcDbEntity
  8
0
100
AcDbLine
 10
414.2156089183917
 20
507.966486111279
 30
0.0
 11
414.2156089183917
 21
423.9664861112788
 31
0.0
  0
LINE
  5
70E
330
2
100
AcDbEntity
  8
0
100
AcDbLine
 10
461.2158229183917
 20
465.966486111279
 30
0.0
 11
460.4303309183917
 21
510.9664861112789
 31
0.0
  0
LINE
  5
70F
330
2
100
AcDbEntity
  8
0
100
AcDbLine
 10
400.4143089183917
 20
535.9664861112789
 30
0.0
 11
400.4143089183917
 21
585.9664861112789
 31
0.0
  0
LINE
  5
710
330
2
100
AcDbEntity
  8
0
100
AcDbLine
 10
404.2156089183918
 20
585.9664861112789
 30
0.0
 11
404.2156089183918
 21
535.9664861112789
 31
0.0
  0
LINE
  5
711
330
2
100
AcDbEntity
  8
0
100
AcDbLine
 10
451.1592129183918
 20
535.7676951112789
 30
0.0
 11
460.4303309183917
 21
510.9664861112789
 31
0.0
  0
ARC
  5
712
330
2
100
AcDbEntity
  8
0
100
AcDbCircle
 10
457.4822409183916
 20
507.9664861112791
 30
0.0
 40
3.0
100
AcDbArc
 50
1.000000000000156
 51
90.0
  0
ARC
  5
713
330
2
100
AcDbEntity
  8
0
100
AcDbCircle
 10
432.7156089183915
 20
525.966486111279
 30
0.0
 40
6.5
100
AcDbArc
 50
308.7593079999999
 51
230.2848630000001
  0
LINE
  5
715
330
2
100
AcDbEntity
  8
0
100
AcDbLine
 10
404.2156089183918
 20
540.966486111279
 30
0.0
 11
443.6656519183919
 21
540.966486111279
 31
0.0
  0
LINE
  5
716
330
2
100
AcDbEntity
  8
0
100
AcDbLine
 10
435.9595969183917
 20
520.966486111279
 30
0.0
 11
426.2744169183918
 21
520.966486111279
 31
0.0
  0
ARC
  5
718
330
2
100
AcDbEntity
  8
0
100
AcDbCircle
 10
443.6656519183916
 20
532.9664861112791
 30
0.0
 40
8.0
100
AcDbArc
 50
20.49661300000034
 51
90.0
  0
ARC
  5
719
330
2
100
AcDbEntity
  8
0
100
AcDbCircle
 10
446.3716149183917
 20
515.9664861112791
 30
0.0
 40
5.0
100
AcDbArc
 50
196.1721589999999
 51
270.0
  0
LINE
  5
71A
330
2
100
AcDbEntity
  8
0
100
AcDbLine
 10
442.6156029183919
 20
510.9664861112789
 30
0.0
 11
442.6188379183918
 21
510.9554081112789
 31
0.0
  0
ARC
  5
71B
330
2
100
AcDbEntity
  8
0
100
AcDbCircle
 10
435.9595969183917
 20
515.9664861112791
 30
0.0
 40
5.0
100
AcDbArc
 50
16.17216500000017
 51
90.0
  0
LINE
  5
71C
330
2
100
AcDbEntity
  8
0
100
AcDbLine
 10
440.7617519183918
 20
517.359095111279
 30
0.0
 11
441.5694609183917
 21
514.573878111279
 31
0.0
  0
LINE
  5
71D
330
2
100
AcDbEntity
  8
0
100
AcDbLine
 10
402.7156089183917
 20
527.966486111279
 30
0.0
 11
402.7156089183917
 21
530.9664861112789
 31
0.0
  0
ARC
  5
71E
330
2
100
AcDbEntity
  8
0
100
AcDbCircle
 10
420.4744289183915
 20
522.9664861112791
 30
0.0
 40
5.0
100
AcDbArc
 50
16.38954200000009
 51
90.0
  0
LINE
  5
71F
330
2
100
AcDbEntity
  8
0
100
AcDbLine
 10
400.4143089183917
 20
535.9664861112789
 30
0.0
 11
404.2156089183918
 21
535.9664861112789
 31
0.0
  0
LINE
  5
720
330
2
100
AcDbEntity
  8
0
100
AcDbLine
 10
401.2156089183918
 20
530.9664861112789
 30
0.0
 11
401.2156089183918
 21
535.9664861112789
 31
0.0
  0
LINE
  5
721
330
2
100
AcDbEntity
  8
0
100
AcDbLine
 10
425.2712429183918
 20
524.3773141112789
 30
0.0
 11
426.2744169183918
 21
520.966486111279
 31
0.0
  0
LINE
  5
722
330
2
100
AcDbEntity
  8
0
100
AcDbLine
 10
451.1592129183918
 20
396.1652781112789
 30
0.0
 11
460.4303309183917
 21
420.9664861112789
 31
0.0
  0
LINE
  5
723
330
2
100
AcDbEntity
  8
0
100
AcDbLine
 10
461.2158229183917
 20
465.966486111279
 30
0.0
 11
460.4303309183917
 21
420.9664861112789
 31
0.0
  0
ARC
  5
724
330
2
100
AcDbEntity
  8
0
100
AcDbCircle
 10
457.4822409183916
 20
423.966486111279
 30
0.0
 40
3.0
100
AcDbArc
 50
270.0
 51
358.9999999999998
  0
ARC
  5
725
330
2
100
AcDbEntity
  8
0
100
AcDbCircle
 10
432.7156089183915
 20
405.9664861112789
 30
0.0
 40
6.5
100
AcDbArc
 50
129.7151369999997
 51
51.24069200000005
  0
LINE
  5
727
330
2
100
AcDbEntity
  8
0
100
AcDbLine
 10
435.9595969183917
 20
410.9664861112788
 30
0.0
 11
426.2744169183918
 21
410.9664861112788
 31
0.0
  0
ARC
  5
729
330
2
100
AcDbEntity
  8
0
100
AcDbCircle
 10
446.3716149183917
 20
415.966486111279
 30
0.0
 40
5.0
100
AcDbArc
 50
90.0
 51
163.827841
  0
LINE
  5
72A
330
2
100
AcDbEntity
  8
0
100
AcDbLine
 10
442.6156029183919
 20
420.9664861112789
 30
0.0
 11
442.6188379183918
 21
420.977564111279
 31
0.0
  0
ARC
  5
72B
330
2
100
AcDbEntity
  8
0
100
AcDbCircle
 10
435.9595969183917
 20
415.966486111279
 30
0.0
 40
5.0
100
AcDbArc
 50
270.0
 51
343.8278349999998
  0
LINE
  5
72C
330
2
100
AcDbEntity
  8
0
100
AcDbLine
 10
440.7617519183918
 20
414.573878111279
 30
0.0
 11
441.5694609183917
 21
417.3590951112788
 31
0.0
  0
ARC
  5
72D
330
2
100
AcDbEntity
  8
0
100
AcDbCircle
 10
443.6656519183916
 20
398.9664861112789
 30
0.0
 40
8.0
100
AcDbArc
 50
270.0
 51
339.5033869999997
  0
LINE
  5
72E
330
2
100
AcDbEntity
  8
0
100
AcDbLine
 10
425.2712429183918
 20
407.5556591112789
 30
0.0
 11
426.2744169183918
 21
410.9664861112788
 31
0.0
  0
ARC
  5
72F
330
2
100
AcDbEntity
  8
0
100
AcDbCircle
 10
420.4744289183915
 20
408.9664861112789
 30
0.0
 40
5.0
100
AcDbArc
 50
270.0
 51
343.6104580000001
  0
LINE
  5
730
330
2
100
AcDbEntity
  8
0
100
AcDbLine
 10
1137.456787812055
 20
115.4992541112789
 30
0.0
 11
1028.494446812055
 21
115.4992541112789
 31
0.0
  0
LINE
  5
731
330
2
100
AcDbEntity
  8
0
100
AcDbLine
 10
1137.456787812055
 20
184.3178501112789
 30
0.0
 11
1028.494446812055
 21
184.3178501112789
 31
0.0
  0
LINE
  5
732
330
2
100
AcDbEntity
  8
0
100
AcDbLine
 10
1137.456787812055
 20
104.9085561112789
 30
0.0
 11
1018.456787812055
 21
104.9085561112789
 31
0.0
  0
LINE
  5
733
330
2
100
AcDbEntity
  8
0
100
AcDbLine
 10
1137.456787812055
 20
194.9085631112789
 30
0.0
 11
1018.456787812055
 21
194.9085631112789
 31
0.0
  0
LINE
  5
734
330
2
100
AcDbEntity
  8
CENTER
100
AcDbLine
 10
1204.456757312054
 20
149.9085561112789
 30
0.0
 11
919.0704048120558
 21
149.9085561112789
 31
0.0
  0
ARC
  5
735
330
2
100
AcDbEntity
  8
0
100
AcDbCircle
 10
907.9567578120558
 20
145.1314711112789
 30
0.0
 40
40.0
100
AcDbArc
 50
311.8120990000001
 51
0.0
  0
LINE
  5
736
330
2
100
AcDbEntity
  8
0
100
AcDbLine
 10
885.4567578120558
 20
146.1585561112789
 30
0.0
 11
885.4567578120558
 21
144.4144151112789
 31
0.0
  0
ARC
  5
737
330
2
100
AcDbEntity
  8
0
100
AcDbCircle
 10
891.1529548120558
 20
142.3548371112789
 30
0.0
 40
3.803712
100
AcDbArc
 50
286.0181269999995
 51
90.00350999999964
  0
LINE
  5
738
330
2
100
AcDbEntity
  8
0
100
AcDbLine
 10
865.069366812056
 20
146.1585561112789
 30
0.0
 11
866.4567578120559
 21
144.6189741112789
 31
0.0
  0
LINE
  5
739
330
2
100
AcDbEntity
  8
0
100
AcDbLine
 10
880.7067578120559
 20
143.1898061112789
 30
0.0
 11
880.7067578120559
 21
146.1585561112789
 31
0.0
  0
LINE
  5
73A
330
2
100
AcDbEntity
  8
0
100
AcDbLine
 10
871.2067578120558
 20
143.1898061112789
 30
0.0
 11
871.2067578120558
 21
146.1585561112789
 31
0.0
  0
ARC
  5
73B
330
2
100
AcDbEntity
  8
0
100
AcDbCircle
 10
772.2479558120558
 20
162.9085561112789
 30
0.0
 40
185.2088929999999
100
AcDbArc
 50
346.0019099999997
 51
13.99809000000029
  0
ARC
  5
73C
330
2
100
AcDbEntity
  8
0
100
AcDbCircle
 10
901.4567578120558
 20
148.9085561112789
 30
0.0
 40
31.89999999999999
100
AcDbArc
 50
270.0
 51
12.52309999999996
  0
ARC
  5
73D
330
2
100
AcDbEntity
  8
0
100
AcDbCircle
 10
901.4567578120558
 20
148.9085561112789
 30
0.0
 40
29.0
100
AcDbArc
 50
270.0
 51
12.52309999999996
  0
LINE
  5
73E
330
2
100
AcDbEntity
  8
0
100
AcDbLine
 10
951.9567578120559
 20
94.40855611127892
 30
0.0
 11
951.9567578120559
 21
231.4085631112789
 31
0.0
  0
LINE
  5
73F
330
2
100
AcDbEntity
  8
CENTER
100
AcDbLine
 10
875.9567578120559
 20
282.9085631112789
 30
0.0
 11
875.9567578120558
 21
57.90855611127892
 31
0.0
  0
LINE
  5
740
330
2
100
AcDbEntity
  8
0
100
AcDbLine
 10
972.4567578120559
 20
123.5562911112789
 30
0.0
 11
972.4567578120559
 21
224.9086851112789
 31
0.0
  0
LINE
  5
741
330
2
100
AcDbEntity
  8
0
100
AcDbLine
 10
1018.456787812055
 20
194.9085631112789
 30
0.0
 11
1018.456787812055
 21
104.9085561112789
 31
0.0
  0
LINE
  5
742
330
2
100
AcDbEntity
  8
0
100
AcDbLine
 10
1027.456787812055
 20
192.9085631112789
 30
0.0
 11
1027.456787812055
 21
106.9085371112789
 31
0.0
  0
LINE
  5
743
330
2
100
AcDbEntity
  8
0
100
AcDbLine
 10
963.9567578120558
 20
226.9085631112789
 30
0.0
 11
963.9567578120558
 21
98.90855611127893
 31
0.0
  0
ARC
  5
744
330
2
100
AcDbEntity
  8
0
100
AcDbCircle
 10
974.9567268120559
 20
100.8879751112789
 30
0.0
 40
2.5
100
AcDbArc
 50
91.99999999999958
 51
179.7392269999997
  0
LINE
  5
745
330
2
100
AcDbEntity
  8
0
100
AcDbLine
 10
1018.456787812055
 20
114.3895591112789
 30
0.0
 11
963.9567578120558
 21
114.3895591112789
 31
0.0
  0
LINE
  5
746
330
2
100
AcDbEntity
  8
0
100
AcDbLine
 10
963.9567578120558
 20
103.0053731112789
 30
0.0
 11
1018.456787812055
 21
104.9085561112789
 31
0.0
  0
LINE
  5
747
330
2
100
AcDbEntity
  8
CENTER
100
AcDbLine
 10
923.4567578120559
 20
90.90855611127892
 30
0.0
 11
923.4567578120559
 21
62.90855611127892
 31
0.0
  0
LINE
  5
748
330
2
100
AcDbEntity
  8
HIDS
100
AcDbLine
 10
916.956757812056
 20
85.90855611127892
 30
0.0
 11
916.956757812056
 21
67.90855611127892
 31
0.0
  0
LINE
  5
749
330
2
100
AcDbEntity
  8
0
100
AcDbLine
 10
901.8353588120557
 20
90.02987511127889
 30
0.0
 11
904.4921578120559
 21
87.37305611127894
 31
0.0
  0
ARC
  5
74A
330
2
100
AcDbEntity
  8
0
100
AcDbCircle
 10
901.9567578120559
 20
86.90855611127892
 30
0.0
 40
1.0
100
AcDbArc
 50
180.0
 51
270.0
  0
ARC
  5
74B
330
2
100
AcDbEntity
  8
0
100
AcDbCircle
 10
899.7141428120558
 20
87.90855611127893
 30
0.0
 40
3.0
100
AcDbArc
 50
44.99969100000007
 51
90.0
  0
LINE
  5
74C
330
2
100
AcDbEntity
  8
0
100
AcDbLine
 10
900.9567578120559
 20
89.97267711127893
 30
0.0
 11
900.9567578120559
 21
86.90855611127892
 31
0.0
  0
ARC
  5
74D
330
2
100
AcDbEntity
  8
0
100
AcDbCircle
 10
908.0277718120557
 20
90.90855611127892
 30
0.0
 40
5.0
100
AcDbArc
 50
224.9998930000002
 51
270.0
  0
LINE
  5
74E
330
2
100
AcDbEntity
  8
0
100
AcDbLine
 10
887.7945568120559
 20
144.4144151112789
 30
0.0
 11
892.2277538120559
 21
144.4115311112789
 31
0.0
  0
LINE
  5
74F
330
2
100
AcDbEntity
  8
0
100
AcDbLine
 10
887.7945568120559
 20
138.5696961112789
 30
0.0
 11
890.8353588120558
 21
138.5696961112789
 31
0.0
  0
LINE
  5
750
330
2
100
AcDbEntity
  8
0
100
AcDbLine
 10
891.4525458120559
 20
140.0537131112789
 30
0.0
 11
887.7945568120559
 21
140.0537131112789
 31
0.0
  0
LINE
  5
751
330
2
100
AcDbEntity
  8
0
100
AcDbLine
 10
874.3239448120558
 20
131.9085561112789
 30
0.0
 11
877.4039618120559
 21
131.9085561112789
 31
0.0
  0
ARC
  5
752
330
2
100
AcDbEntity
  8
0
100
AcDbCircle
 10
862.1149608120559
 20
136.5472121112789
 30
0.0
 40
2.96875
100
AcDbArc
 50
270.0002139999998
 51
0.0001089999998967
  0
LINE
  5
753
330
2
100
AcDbEntity
  8
0
100
AcDbLine
 10
875.0289618120559
 20
144.4144151112789
 30
0.0
 11
875.0289618120559
 21
133.4671571112789
 31
0.0
  0
LINE
  5
754
330
2
100
AcDbEntity
  8
0
100
AcDbLine
 10
866.4567578120559
 20
140.1839541112789
 30
0.0
 11
866.4567578120559
 21
131.9085561112789
 31
0.0
  0
LINE
  5
755
330
2
100
AcDbEntity
  8
0
100
AcDbLine
 10
865.0837718120557
 20
133.0444731112789
 30
0.0
 11
863.7297678120559
 21
131.9085561112789
 31
0.0
  0
LINE
  5
756
330
2
100
AcDbEntity
  8
0
100
AcDbLine
 10
865.0837718120557
 20
131.9085561112789
 30
0.0
 11
866.4567578120559
 21
131.9085561112789
 31
0.0
  0
LINE
  5
757
330
2
100
AcDbEntity
  8
0
100
AcDbLine
 10
865.0837718120557
 20
133.0444731112789
 30
0.0
 11
865.0837718120557
 21
131.9085561112789
 31
0.0
  0
LINE
  5
758
330
2
100
AcDbEntity
  8
0
100
AcDbLine
 10
874.3239448120558
 20
133.4671571112789
 30
0.0
 11
875.0289618120559
 21
133.4671571112789
 31
0.0
  0
LINE
  5
759
330
2
100
AcDbEntity
  8
0
100
AcDbLine
 10
874.3239448120558
 20
133.4671571112789
 30
0.0
 11
874.3239448120558
 21
131.9085561112789
 31
0.0
  0
LINE
  5
75A
330
2
100
AcDbEntity
  8
0
100
AcDbLine
 10
865.0837718120557
 20
143.4144151112789
 30
0.0
 11
865.0837718120557
 21
143.1898061112789
 31
0.0
  0
LINE
  5
75B
330
2
100
AcDbEntity
  8
0
100
AcDbLine
 10
862.5973518120558
 20
140.1839541112789
 30
0.0
 11
862.5973518120558
 21
138.6253531112789
 31
0.0
  0
LINE
  5
75C
330
2
100
AcDbEntity
  8
0
100
AcDbLine
 10
865.0837718120557
 20
138.6253531112789
 30
0.0
 11
865.0837718120557
 21
136.5472121112789
 31
0.0
  0
LINE
  5
75D
330
2
100
AcDbEntity
  8
0
100
AcDbLine
 10
866.4567578120559
 20
144.6189741112789
 30
0.0
 11
866.4567578120559
 21
143.1898061112789
 31
0.0
  0
LINE
  5
75E
330
2
100
AcDbEntity
  8
0
100
AcDbLine
 10
865.0837718120557
 20
137.1409781112789
 30
0.0
 11
865.0837718120557
 21
138.3284781112789
 31
0.0
  0
LINE
  5
75F
330
2
100
AcDbEntity
  8
0
100
AcDbLine
 10
865.0837718120557
 20
138.6253531112789
 30
0.0
 11
862.5973518120558
 21
138.6253531112789
 31
0.0
  0
LINE
  5
760
330
2
100
AcDbEntity
  8
0
100
AcDbLine
 10
862.5973518120558
 20
140.1839541112789
 30
0.0
 11
866.4567578120559
 21
140.1839541112789
 31
0.0
  0
LINE
  5
761
330
2
100
AcDbEntity
  8
0
100
AcDbLine
 10
865.0837718120557
 20
143.1898061112789
 30
0.0
 11
866.4567578120559
 21
143.1898061112789
 31
0.0
  0
LINE
  5
762
330
2
100
AcDbEntity
  8
0
100
AcDbLine
 10
865.0837718120557
 20
143.4144151112789
 30
0.0
 11
864.1847538120558
 21
144.2659781112789
 31
0.0
  0
LINE
  5
763
330
2
100
AcDbEntity
  8
0
100
AcDbLine
 10
875.0289618120559
 20
144.4144151112789
 30
0.0
 11
872.7715458120558
 21
144.4144151112789
 31
0.0
  0
LINE
  5
764
330
2
100
AcDbEntity
  8
0
100
AcDbLine
 10
872.7715458120558
 20
144.4144151112789
 30
0.0
 11
872.2613538120558
 21
143.1898061112789
 31
0.0
  0
LINE
  5
765
330
2
100
AcDbEntity
  8
0
100
AcDbLine
 10
871.2067578120558
 20
143.1898061112789
 30
0.0
 11
872.2613538120558
 21
143.1898061112789
 31
0.0
  0
LINE
  5
766
330
2
100
AcDbEntity
  8
0
100
AcDbLine
 10
887.7945568120559
 20
138.5696961112789
 30
0.0
 11
887.7945568120559
 21
133.3929381112789
 31
0.0
  0
LINE
  5
767
330
2
100
AcDbEntity
  8
0
100
AcDbLine
 10
886.1617438120559
 20
144.4144151112789
 30
0.0
 11
886.1617438120559
 21
133.3929381112789
 31
0.0
  0
LINE
  5
768
330
2
100
AcDbEntity
  8
0
100
AcDbLine
 10
876.8101508120558
 20
144.4144151112789
 30
0.0
 11
876.8101508120558
 21
133.4671571112789
 31
0.0
  0
LINE
  5
769
330
2
100
AcDbEntity
  8
0
100
AcDbLine
 10
877.4039618120559
 20
133.4671571112789
 30
0.0
 11
877.4039618120559
 21
131.9085561112789
 31
0.0
  0
LINE
  5
76A
330
2
100
AcDbEntity
  8
0
100
AcDbLine
 10
876.8101508120558
 20
133.4671571112789
 30
0.0
 11
877.4039618120559
 21
133.4671571112789
 31
0.0
  0
LINE
  5
76B
330
2
100
AcDbEntity
  8
0
100
AcDbLine
 10
885.4567578120558
 20
133.3929381112789
 30
0.0
 11
885.4567578120558
 21
131.9085561112789
 31
0.0
  0
LINE
  5
76C
330
2
100
AcDbEntity
  8
0
100
AcDbLine
 10
888.4441538120558
 20
133.3929381112789
 30
0.0
 11
888.4441538120558
 21
131.9085561112789
 31
0.0
  0
LINE
  5
76D
330
2
100
AcDbEntity
  8
0
100
AcDbLine
 10
888.4441538120558
 20
131.9085561112789
 30
0.0
 11
885.4567578120558
 21
131.9085561112789
 31
0.0
  0
LINE
  5
76E
330
2
100
AcDbEntity
  8
0
100
AcDbLine
 10
887.7945568120559
 20
133.3929381112789
 30
0.0
 11
888.4441538120558
 21
133.3929381112789
 31
0.0
  0
LINE
  5
76F
330
2
100
AcDbEntity
  8
0
100
AcDbLine
 10
885.4567578120558
 20
133.3929381112789
 30
0.0
 11
886.1617438120559
 21
133.3929381112789
 31
0.0
  0
LINE
  5
770
330
2
100
AcDbEntity
  8
0
100
AcDbLine
 10
876.8101508120558
 20
144.4144151112789
 30
0.0
 11
879.2855538120559
 21
144.4144151112789
 31
0.0
  0
LINE
  5
771
330
2
100
AcDbEntity
  8
0
100
AcDbLine
 10
879.2855538120559
 20
144.4144151112789
 30
0.0
 11
879.7157598120559
 21
143.1898061112789
 31
0.0
  0
LINE
  5
772
330
2
100
AcDbEntity
  8
0
100
AcDbLine
 10
879.7157598120559
 20
143.1898061112789
 30
0.0
 11
880.7067578120559
 21
143.1898061112789
 31
0.0
  0
LINE
  5
773
330
2
100
AcDbEntity
  8
0
100
AcDbLine
 10
885.4567578120558
 20
144.4144151112789
 30
0.0
 11
886.1617438120559
 21
144.4144151112789
 31
0.0
  0
LINE
  5
774
330
2
100
AcDbEntity
  8
0
100
AcDbLine
 10
887.7945568120559
 20
144.4144151112789
 30
0.0
 11
887.7945568120559
 21
140.0537131112789
 31
0.0
  0
LINE
  5
775
330
2
100
AcDbEntity
  8
0
100
AcDbLine
 10
890.8353588120558
 20
138.5696961112789
 30
0.0
 11
893.0631718120558
 21
133.3929381112789
 31
0.0
  0
LINE
  5
776
330
2
100
AcDbEntity
  8
0
100
AcDbLine
 10
892.2025458120558
 20
138.6988161112789
 30
0.0
 11
894.5569468120559
 21
133.3929381112789
 31
0.0
  0
LINE
  5
777
330
2
100
AcDbEntity
  8
0
100
AcDbLine
 10
892.7673658120559
 20
133.3929381112789
 30
0.0
 11
892.7673658120559
 21
131.9085561112789
 31
0.0
  0
LINE
  5
778
330
2
100
AcDbEntity
  8
0
100
AcDbLine
 10
894.9567578120559
 20
133.3929381112789
 30
0.0
 11
894.9567578120559
 21
131.9085561112789
 31
0.0
  0
LINE
  5
779
330
2
100
AcDbEntity
  8
0
100
AcDbLine
 10
892.7673658120559
 20
131.9085561112789
 30
0.0
 11
894.9567578120559
 21
131.9085561112789
 31
0.0
  0
LINE
  5
77A
330
2
100
AcDbEntity
  8
0
100
AcDbLine
 10
894.5569468120559
 20
133.3929381112789
 30
0.0
 11
894.9567578120559
 21
133.3929381112789
 31
0.0
  0
LINE
  5
77B
330
2
100
AcDbEntity
  8
0
100
AcDbLine
 10
892.7673658120559
 20
133.3929381112789
 30
0.0
 11
893.0631718120558
 21
133.3929381112789
 31
0.0
  0
ARC
  5
77C
330
2
100
AcDbEntity
  8
0
100
AcDbCircle
 10
891.1529548120558
 20
142.3548371112789
 30
0.0
 40
2.320524
100
AcDbArc
 50
277.4147260000004
 51
62.41184999999949
  0
LINE
  5
77D
330
2
100
AcDbEntity
  8
HIDS
100
AcDbLine
 10
929.9567578120559
 20
85.90855611127892
 30
0.0
 11
929.9567578120559
 21
67.90855611127892
 31
0.0
  0
LINE
  5
77E
330
2
100
AcDbEntity
  8
0
100
AcDbLine
 10
937.9567578120559
 20
83.84199711127894
 30
0.0
 11
937.9567578120559
 21
67.90855611127892
 31
0.0
  0
LINE
  5
77F
330
2
100
AcDbEntity
  8
0
100
AcDbLine
 10
951.9567578120559
 20
94.40855611127892
 30
0.0
 11
951.9567578120559
 21
67.90855611127892
 31
0.0
  0
LINE
  5
780
330
2
100
AcDbEntity
  8
0
100
AcDbLine
 10
956.9567578120558
 20
98.90855611127893
 30
0.0
 11
963.9567578120558
 21
98.90855611127893
 31
0.0
  0
ARC
  5
781
330
2
100
AcDbEntity
  8
0
100
AcDbCircle
 10
956.9567578120558
 20
93.90853711127892
 30
0.0
 40
5.0
100
AcDbArc
 50
90.0
 51
180.0
  0
LINE
  5
782
330
2
100
AcDbEntity
  8
0
100
AcDbLine
 10
970.4567578120558
 20
98.90845711127894
 30
0.0
 11
963.9567578120558
 21
98.90845711127894
 31
0.0
  0
ARC
  5
783
330
2
100
AcDbEntity
  8
0
100
AcDbCircle
 10
970.4567578120558
 20
100.9084571112789
 30
0.0
 40
2.0
100
AcDbArc
 50
270.0
 51
359.7392269999997
  0
LINE
  5
784
330
2
100
AcDbEntity
  8
0
100
AcDbLine
 10
971.888794812056
 20
122.3415541112789
 30
0.0
 11
963.9567578120558
 21
122.3415541112789
 31
0.0
  0
ARC
  5
785
330
2
100
AcDbEntity
  8
0
100
AcDbCircle
 10
1025.456787812055
 20
106.9085561112789
 30
0.0
 40
2.0
100
AcDbArc
 50
270.0
 51
0.0
  0
LINE
  5
786
330
2
100
AcDbEntity
  8
0
100
AcDbLine
 10
1018.456787812055
 20
129.4025591112789
 30
0.0
 11
974.4567578120559
 21
129.4025591112789
 31
0.0
  0
ARC
  5
787
330
2
100
AcDbEntity
  8
0
100
AcDbCircle
 10
974.956757812056
 20
204.4440861112789
 30
0.0
 40
2.5
100
AcDbArc
 50
180.0
 51
225.0
  0
LINE
  5
788
330
2
100
AcDbEntity
  8
0
100
AcDbLine
 10
1018.456787812055
 20
194.9085631112789
 30
0.0
 11
972.4567578120559
 21
196.5149171112789
 31
0.0
  0
LINE
  5
789
330
2
100
AcDbEntity
  8
CENTER
100
AcDbLine
 10
998.9247661125693
 20
162.9085561112789
 30
0.0
 11
919.0704048120558
 21
162.9085561112789
 31
0.0
  0
ARC
  5
78A
330
2
100
AcDbEntity
  8
0
100
AcDbCircle
 10
907.9567578120558
 20
216.6856631112789
 30
0.0
 40
40.0
100
AcDbArc
 50
0.0
 51
48.25191100000012
  0
LINE
  5
78B
330
2
100
AcDbEntity
  8
0
100
AcDbLine
 10
929.7667548120559
 20
155.1967411112789
 30
0.0
 11
916.0789498120559
 21
216.8204291112789
 31
0.0
  0
LINE
  5
78C
330
2
100
AcDbEntity
  8
0
100
AcDbLine
 10
885.4567578120558
 20
146.1585561112789
 30
0.0
 11
891.1529548120558
 21
146.1585561112789
 31
0.0
  0
LINE
  5
78D
330
2
100
AcDbEntity
  8
0
100
AcDbLine
 10
871.2067578120558
 20
146.1585561112789
 30
0.0
 11
880.7067578120559
 21
146.1585561112789
 31
0.0
  0
LINE
  5
78E
330
2
100
AcDbEntity
  8
0
100
AcDbLine
 10
864.9567578120558
 20
212.9085631112789
 30
0.0
 11
864.9567578120558
 21
202.9085631112788
 31
0.0
  0
LINE
  5
78F
330
2
100
AcDbEntity
  8
0
100
AcDbLine
 10
947.9567578120558
 20
216.6856631112789
 30
0.0
 11
947.9567578120558
 21
145.1314871112789
 31
0.0
  0
LINE
  5
790
330
2
100
AcDbEntity
  8
0
100
AcDbLine
 10
932.5977488120559
 20
155.8255631112789
 30
0.0
 11
918.9099438120559
 21
217.4492591112789
 31
0.0
  0
LINE
  5
791
330
2
100
AcDbEntity
  8
0
100
AcDbLine
 10
948.5067448120558
 20
242.7941831112789
 30
0.0
 11
907.0101628120559
 21
271.4886111112789
 31
0.0
  0
ARC
  5
792
330
2
100
AcDbEntity
  8
0
100
AcDbCircle
 10
902.4601448120559
 20
264.9085631112789
 30
0.0
 40
8.0
100
AcDbArc
 50
55.33630000000021
 51
90.0
  0
LINE
  5
793
330
2
100
AcDbEntity
  8
0
100
AcDbLine
 10
956.9567578120558
 20
226.9085631112789
 30
0.0
 11
963.9567578120558
 21
226.9085631112789
 31
0.0
  0
LINE
  5
794
330
2
100
AcDbEntity
  8
0
100
AcDbLine
 10
951.9567578120559
 20
231.4085631112789
 30
0.0
 11
951.9567578120559
 21
236.2141211112789
 31
0.0
  0
ARC
  5
795
330
2
100
AcDbEntity
  8
0
100
AcDbCircle
 10
956.9567578120558
 20
231.9085631112788
 30
0.0
 40
5.0
100
AcDbArc
 50
180.0
 51
270.0
  0
ARC
  5
796
330
2
100
AcDbEntity
  8
0
100
AcDbCircle
 10
943.9567578120559
 20
236.2141511112789
 30
0.0
 40
8.0
100
AcDbArc
 50
0.0
 51
55.33620100000035
  0
LINE
  5
797
330
2
100
AcDbEntity
  8
0
100
AcDbLine
 10
970.4567578120558
 20
226.9086551112788
 30
0.0
 11
963.9567578120558
 21
226.9086551112788
 31
0.0
  0
ARC
  5
798
330
2
100
AcDbEntity
  8
0
100
AcDbCircle
 10
970.4567268120559
 20
224.9086851112789
 30
0.0
 40
2.0
100
AcDbArc
 50
0.0
 51
90.0
  0
ARC
  5
799
330
2
100
AcDbEntity
  8
0
100
AcDbCircle
 10
980.6712658120559
 20
198.7295781112788
 30
0.0
 40
2.5
100
AcDbArc
 50
225.0
 51
267.9999999999996
  0
LINE
  5
79A
330
2
100
AcDbEntity
  8
0
100
AcDbLine
 10
973.1889958120559
 20
202.6763251112789
 30
0.0
 11
978.9035038120559
 21
196.9618161112789
 31
0.0
  0
ARC
  5
79B
330
2
100
AcDbEntity
  8
0
100
AcDbCircle
 10
1025.456787812055
 20
192.9085791112789
 30
0.0
 40
2.0
100
AcDbArc
 50
0.0
 51
90.0
  0
LINE
  5
79C
330
2
100
AcDbEntity
  8
0
100
AcDbLine
 10
1137.456787812055
 20
104.9085561112789
 30
0.0
 11
1137.456787812055
 21
194.9085631112789
 31
0.0
  0
LINE
  5
79D
330
2
100
AcDbEntity
  8
0
100
AcDbLine
 10
1194.456726812056
 20
191.9085631112789
 30
0.0
 11
1194.456787812056
 21
107.9085441112789
 31
0.0
  0
LINE
  5
79E
330
2
100
AcDbEntity
  8
0
100
AcDbLine
 10
1146.956787812055
 20
196.9085631112789
 30
0.0
 11
1146.956787812055
 21
102.9085561112789
 31
0.0
  0
LINE
  5
79F
330
2
100
AcDbEntity
  8
0
100
AcDbLine
 10
1137.456787812055
 20
115.4992691112789
 30
0.0
 11
1146.956787812055
 21
115.4992691112789
 31
0.0
  0
LINE
  5
7A0
330
2
100
AcDbEntity
  8
0
100
AcDbLine
 10
1146.956787812055
 20
104.9085561112789
 30
0.0
 11
1137.456787812055
 21
104.9085561112789
 31
0.0
  0
ARC
  5
7A1
330
2
100
AcDbEntity
  8
0
100
AcDbCircle
 10
1189.456787812055
 20
107.9085561112789
 30
0.0
 40
5.0
100
AcDbArc
 50
270.0
 51
0.0
  0
LINE
  5
7A2
330
2
100
AcDbEntity
  8
0
100
AcDbLine
 10
1189.456787812055
 20
102.9085561112789
 30
0.0
 11
1146.956787812055
 21
102.9085561112789
 31
0.0
  0
LINE
  5
7A3
330
2
100
AcDbEntity
  8
0
100
AcDbLine
 10
1146.956787812055
 20
120.9085561112789
 30
0.0
 11
1190.931763812056
 21
120.9085561112789
 31
0.0
  0
LINE
  5
7A6
330
2
100
AcDbEntity
  8
0
100
AcDbLine
 10
1137.456787812055
 20
184.3178501112789
 30
0.0
 11
1146.956787812055
 21
184.3178501112789
 31
0.0
  0
LINE
  5
7A7
330
2
100
AcDbEntity
  8
0
100
AcDbLine
 10
1146.956787812055
 20
194.9085631112789
 30
0.0
 11
1137.456787812055
 21
194.9085631112789
 31
0.0
  0
LINE
  5
7AE
330
2
100
AcDbEntity
  8
0
100
AcDbLine
 10
1146.956787812055
 20
178.9085631112789
 30
0.0
 11
1190.931763812056
 21
178.9085631112789
 31
0.0
  0
LINE
  5
7AF
330
2
100
AcDbEntity
  8
0
100
AcDbLine
 10
1189.456787812055
 20
196.9085631112789
 30
0.0
 11
1146.956787812055
 21
196.9085631112789
 31
0.0
  0
ARC
  5
7B2
330
2
100
AcDbEntity
  8
0
100
AcDbCircle
 10
1189.456726812055
 20
191.9085631112789
 30
0.0
 40
5.0
100
AcDbArc
 50
0.0
 51
90.0
  0
LINE
  5
7B3
330
2
100
AcDbEntity
  8
0
100
AcDbLine
 10
123.7155789183916
 20
436.966486111279
 30
0.0
 11
233.7155789183916
 21
436.966486111279
 31
0.0
  0
LINE
  5
7B4
330
2
100
AcDbEntity
  8
0
100
AcDbLine
 10
123.7155789183916
 20
494.966486111279
 30
0.0
 11
233.7155789183916
 21
494.966486111279
 31
0.0
  0
LINE
  5
7B5
330
2
100
AcDbEntity
  8
0
100
AcDbLine
 10
123.7155789183916
 20
420.966486111279
 30
0.0
 11
242.7155789183916
 21
420.966486111279
 31
0.0
  0
LINE
  5
7B6
330
2
100
AcDbEntity
  8
0
100
AcDbLine
 10
123.7155789183918
 20
510.9664861112789
 30
0.0
 11
242.7155789183919
 21
510.9664861112789
 31
0.0
  0
LINE
  5
7B8
330
2
100
AcDbEntity
  8
0
100
AcDbLine
 10
281.5726039183918
 20
487.7619881112789
 30
0.0
 11
281.5726039183918
 21
444.049403111279
 31
0.0
  0
LINE
  5
7B9
330
2
100
AcDbEntity
  8
0
100
AcDbLine
 10
242.7155789183919
 20
514.9784801112789
 30
0.0
 11
242.7155789183916
 21
416.9544931112788
 31
0.0
  0
LINE
  5
7BA
330
2
100
AcDbEntity
  8
0
100
AcDbLine
 10
288.7156089183915
 20
403.966486111279
 30
0.0
 11
288.7156089183918
 21
527.966486111279
 31
0.0
  0
LINE
  5
7BB
330
2
100
AcDbEntity
  8
0
100
AcDbLine
 10
309.2153959183917
 20
465.966486111279
 30
0.0
 11
309.9494349183917
 21
508.0188541112789
 31
0.0
  0
LINE
  5
7BC
330
2
100
AcDbEntity
  8
0
100
AcDbLine
 10
297.2156089183918
 20
529.9664861112789
 30
0.0
 11
297.2156089183915
 21
401.9664861112789
 31
0.0
  0
LINE
  5
7BD
330
2
100
AcDbEntity
  8
0
100
AcDbLine
 10
356.2156089183918
 20
507.966486111279
 30
0.0
 11
356.2156089183918
 21
423.966486111279
 31
0.0
  0
LINE
  5
7BE
330
2
100
AcDbEntity
  8
CENTER
100
AcDbLine
 10
385.2156089183918
 20
595.966486111279
 30
0.0
 11
385.2156089183918
 21
380.9664861112789
 31
0.0
  0
LINE
  5
7BF
330
2
100
AcDbEntity
  8
0
100
AcDbLine
 10
243.2152739183918
 20
515.495936111279
 30
0.0
 11
288.7156089183918
 21
517.0848331112789
 31
0.0
  0
ARC
  5
7C0
330
2
100
AcDbEntity
  8
0
100
AcDbCircle
 10
286.1919889183916
 20
514.986231111279
 30
0.0
 40
2.5
100
AcDbArc
 50
271.9999999999995
 51
359.8957059999996
  0
LINE
  5
7C1
330
2
100
AcDbEntity
  8
0
100
AcDbLine
 10
281.5726039183918
 20
489.9664861112789
 30
0.0
 11
288.6875939183917
 21
489.9664861112789
 31
0.0
  0
LINE
  5
7C2
330
2
100
AcDbEntity
  8
0
100
AcDbLine
 10
369.2156089183918
 20
530.9664861112789
 30
0.0
 11
369.2156089183918
 21
585.9664861112789
 31
0.0
  0
LINE
  5
7C3
330
2
100
AcDbEntity
  8
0
100
AcDbLine
 10
334.4716209183918
 20
520.966486111279
 30
0.0
 11
344.1568019183916
 21
520.966486111279
 31
0.0
  0
ARC
  5
7C5
330
2
100
AcDbEntity
  8
0
100
AcDbCircle
 10
337.7156089183916
 20
525.966486111279
 30
0.0
 40
6.5
100
AcDbArc
 50
309.7151339999998
 51
231.2406879999997
  0
LINE
  5
7C6
330
2
100
AcDbEntity
  8
0
100
AcDbLine
 10
326.7655669183918
 20
540.966486111279
 30
0.0
 11
369.2156089183918
 21
540.966486111279
 31
0.0
  0
ARC
  5
7C8
330
2
100
AcDbEntity
  8
0
100
AcDbCircle
 10
349.9567899183916
 20
522.9664861112791
 30
0.0
 40
5.0
100
AcDbArc
 50
90.0
 51
163.6104739999997
  0
LINE
  5
7C9
330
2
100
AcDbEntity
  8
0
100
AcDbLine
 10
367.7156089183918
 20
527.966486111279
 30
0.0
 11
367.7156089183918
 21
530.9664861112789
 31
0.0
  0
LINE
  5
7CA
330
2
100
AcDbEntity
  8
0
100
AcDbLine
 10
345.1599759183918
 20
524.3773141112789
 30
0.0
 11
344.1568019183916
 21
520.966486111279
 31
0.0
  0
ARC
  5
7CB
330
2
100
AcDbEntity
  8
0
100
AcDbCircle
 10
312.9489769183917
 20
507.9664861112791
 30
0.0
 40
3.0
100
AcDbArc
 50
90.0
 51
178.9999999999998
  0
LINE
  5
7CC
330
2
100
AcDbEntity
  8
0
100
AcDbLine
 10
319.2720059183918
 20
535.7676951112789
 30
0.0
 11
310.2172269183918
 21
511.5452221112788
 31
0.0
  0
ARC
  5
7CE
330
2
100
AcDbEntity
  8
0
100
AcDbCircle
 10
326.7655669183916
 20
532.9664861112791
 30
0.0
 40
8.0
100
AcDbArc
 50
90.0
 51
159.5033869999996
  0
ARC
  5
7CF
330
2
100
AcDbEntity
  8
0
100
AcDbCircle
 10
334.4716209183916
 20
515.9664861112791
 30
0.0
 40
5.0
100
AcDbArc
 50
90.0
 51
163.8278499999997
  0
LINE
  5
7D0
330
2
100
AcDbEntity
  8
0
100
AcDbLine
 10
327.8156159183918
 20
510.9664861112789
 30
0.0
 11
327.8123809183919
 21
510.9554081112789
 31
0.0
  0
ARC
  5
7D1
330
2
100
AcDbEntity
  8
0
100
AcDbCircle
 10
324.0596039183915
 20
515.9664861112791
 30
0.0
 40
5.0
100
AcDbArc
 50
270.0
 51
343.8278349999998
  0
LINE
  5
7D2
330
2
100
AcDbEntity
  8
0
100
AcDbLine
 10
329.6694669183918
 20
517.359095111279
 30
0.0
 11
328.8617579183917
 21
514.573878111279
 31
0.0
  0
ARC
  5
7D3
330
2
100
AcDbEntity
  8
0
100
AcDbCircle
 10
290.7156089183915
 20
527.9664861112791
 30
0.0
 40
2.0
100
AcDbArc
 50
90.0
 51
180.0
  0
ARC
  5
7D4
330
2
100
AcDbEntity
  8
0
100
AcDbCircle
 10
299.7879359183916
 20
524.966486111279
 30
0.0
 40
5.0
100
AcDbArc
 50
15.00000000000042
 51
90.0
  0
LINE
  5
7D5
330
2
100
AcDbEntity
  8
0
100
AcDbLine
 10
290.7156089183918
 20
529.9664861112789
 30
0.0
 11
297.2156089183918
 21
529.9664861112789
 31
0.0
  0
LINE
  5
7D6
330
2
100
AcDbEntity
  8
0
100
AcDbLine
 10
299.7879359183919
 20
529.9664861112789
 30
0.0
 11
297.2156089183918
 21
529.9664861112789
 31
0.0
  0
LINE
  5
7D7
330
2
100
AcDbEntity
  8
0
100
AcDbLine
 10
304.6175559183918
 20
526.260584111279
 30
0.0
 11
307.7226279183919
 21
514.672388111279
 31
0.0
  0
ARC
  5
7D8
330
2
100
AcDbEntity
  8
0
100
AcDbCircle
 10
312.5522489183915
 20
515.9664861112791
 30
0.0
 40
5.0
100
AcDbArc
 50
195.0000000000003
 51
270.0
  0
LINE
  5
7D9
330
2
100
AcDbEntity
  8
0
100
AcDbLine
 10
288.7156089183918
 20
512.5728401112789
 30
0.0
 11
288.6875939183919
 21
512.5718641112789
 31
0.0
  0
LINE
  5
7DA
330
2
100
AcDbEntity
  8
0
100
AcDbLine
 10
233.7155789183918
 20
508.9664861112789
 30
0.0
 11
233.7155789183916
 21
494.966486111279
 31
0.0
  0
LINE
  5
7DB
330
2
100
AcDbEntity
  8
0
100
AcDbLine
 10
242.7155789183919
 20
510.9664861112789
 30
0.0
 11
286.2792389183919
 21
512.487757111279
 31
0.0
  0
LINE
  5
7DC
330
2
100
AcDbEntity
  8
0
100
AcDbLine
 10
242.7155789183919
 20
514.9784801112789
 30
0.0
 11
243.2152739183918
 21
515.495936111279
 31
0.0
  0
ARC
  5
7DD
330
2
100
AcDbEntity
  8
0
100
AcDbCircle
 10
235.7155789183916
 20
508.966517111279
 30
0.0
 40
2.0
100
AcDbArc
 50
90.0
 51
180.0
  0
LINE
  5
7DE
330
2
100
AcDbEntity
  8
0
100
AcDbLine
 10
243.2152739183916
 20
416.4370371112791
 30
0.0
 11
288.7156089183915
 21
414.8481391112791
 31
0.0
  0
ARC
  5
7DF
330
2
100
AcDbEntity
  8
0
100
AcDbCircle
 10
286.1919889183916
 20
416.946741111279
 30
0.0
 40
2.5
100
AcDbArc
 50
0.1042939999995873
 51
87.99999999999959
  0
LINE
  5
7E0
330
2
100
AcDbEntity
  8
0
100
AcDbLine
 10
282.1777679183917
 20
441.9664861112789
 30
0.0
 11
288.6875939183917
 21
441.9664861112789
 31
0.0
  0
LINE
  5
7E1
330
2
100
AcDbEntity
  8
0
100
AcDbLine
 10
334.4716209183918
 20
410.9664861112789
 30
0.0
 11
344.1568019183916
 21
410.9664861112789
 31
0.0
  0
LINE
  5
7E2
330
2
100
AcDbEntity
  8
CENTER
100
AcDbLine
 10
348.0632649183917
 20
405.9664861112789
 30
0.0
 11
327.3679529183916
 21
405.9664861112789
 31
0.0
  0
ARC
  5
7E3
330
2
100
AcDbEntity
  8
0
100
AcDbCircle
 10
337.7156089183916
 20
405.9664861112789
 30
0.0
 40
6.5
100
AcDbArc
 50
128.7593120000002
 51
50.2848660000002
  0
LINE
  5
7E6
330
2
100
AcDbEntity
  8
0
100
AcDbLine
 10
345.1599759183918
 20
407.555659111279
 30
0.0
 11
344.1568019183916
 21
410.9664861112789
 31
0.0
  0
ARC
  5
7E7
330
2
100
AcDbEntity
  8
0
100
AcDbCircle
 10
349.9567899183916
 20
408.9664861112789
 30
0.0
 40
5.0
100
AcDbArc
 50
196.3895399999997
 51
270.0
  0
LINE
  5
7E8
330
2
100
AcDbEntity
  8
0
100
AcDbLine
 10
309.2153959183917
 20
465.966486111279
 30
0.0
 11
309.9494349183917
 21
423.9141181112789
 31
0.0
  0
LINE
  5
7E9
330
2
100
AcDbEntity
  8
0
100
AcDbLine
 10
319.2720059183918
 20
396.1652781112791
 30
0.0
 11
310.2172269183918
 21
420.3877511112789
 31
0.0
  0
LINE
  5
7EA
330
2
100
AcDbEntity
  8
CENTER
100
AcDbLine
 10
337.7156089183916
 20
416.3141421112788
 30
0.0
 11
337.7156089183916
 21
395.618830111279
 31
0.0
  0
ARC
  5
7EB
330
2
100
AcDbEntity
  8
0
100
AcDbCircle
 10
334.4716209183916
 20
415.966486111279
 30
0.0
 40
5.0
100
AcDbArc
 50
196.1721589999999
 51
270.0
  0
ARC
  5
7EC
330
2
100
AcDbEntity
  8
0
100
AcDbCircle
 10
324.0596039183915
 20
415.966486111279
 30
0.0
 40
5.0
100
AcDbArc
 50
16.17216500000017
 51
90.0
  0
LINE
  5
7ED
330
2
100
AcDbEntity
  8
0
100
AcDbLine
 10
327.8156159183915
 20
420.966486111279
 30
0.0
 11
327.8123809183919
 21
420.977564111279
 31
0.0
  0
LINE
  5
7EE
330
2
100
AcDbEntity
  8
0
100
AcDbLine
 10
329.6694669183918
 20
414.5738781112791
 30
0.0
 11
328.8617579183917
 21
417.359095111279
 31
0.0
  0
ARC
  5
7EF
330
2
100
AcDbEntity
  8
0
100
AcDbCircle
 10
326.7655669183916
 20
398.9664861112789
 30
0.0
 40
8.0
100
AcDbArc
 50
200.4966180000001
 51
270.0
  0
LINE
  5
7F0
330
2
100
AcDbEntity
  8
0
100
AcDbLine
 10
304.6175559183918
 20
405.672388111279
 30
0.0
 11
307.7226279183917
 21
417.260584111279
 31
0.0
  0
ARC
  5
7F1
330
2
100
AcDbEntity
  8
0
100
AcDbCircle
 10
312.5522489183915
 20
415.966486111279
 30
0.0
 40
5.0
100
AcDbArc
 50
90.0
 51
164.9999999999995
  0
ARC
  5
7F2
330
2
100
AcDbEntity
  8
0
100
AcDbCircle
 10
312.9489769183917
 20
423.966486111279
 30
0.0
 40
3.0
100
AcDbArc
 50
181.0000000000001
 51
270.0
  0
ARC
  5
7F3
330
2
100
AcDbEntity
  8
0
100
AcDbCircle
 10
299.7879359183916
 20
406.9664861112789
 30
0.0
 40
5.0
100
AcDbArc
 50
270.0
 51
344.9999999999996
  0
LINE
  5
7F4
330
2
100
AcDbEntity
  8
0
100
AcDbLine
 10
290.7156089183915
 20
401.9664861112789
 30
0.0
 11
297.2156089183915
 21
401.9664861112789
 31
0.0
  0
LINE
  5
7F5
330
2
100
AcDbEntity
  8
0
100
AcDbLine
 10
299.7879359183919
 20
401.9664861112789
 30
0.0
 11
297.2156089183915
 21
401.9664861112789
 31
0.0
  0
ARC
  5
7F6
330
2
100
AcDbEntity
  8
0
100
AcDbCircle
 10
290.7156089183915
 20
403.966486111279
 30
0.0
 40
2.0
100
AcDbArc
 50
180.0
 51
270.0
  0
LINE
  5
7F7
330
2
100
AcDbEntity
  8
0
100
AcDbLine
 10
233.7155789183916
 20
436.966486111279
 30
0.0
 11
233.7155789183916
 21
422.966456111279
 31
0.0
  0
LINE
  5
7F8
330
2
100
AcDbEntity
  8
0
100
AcDbLine
 10
242.7155789183916
 20
420.966486111279
 30
0.0
 11
286.2792389183916
 21
419.445216111279
 31
0.0
  0
ARC
  5
7F9
330
2
100
AcDbEntity
  8
0
100
AcDbCircle
 10
235.7155789183916
 20
422.9664861112789
 30
0.0
 40
2.0
100
AcDbArc
 50
180.0
 51
270.0
  0
LINE
  5
7FA
330
2
100
AcDbEntity
  8
0
100
AcDbLine
 10
242.7155789183916
 20
416.9544931112788
 30
0.0
 11
243.2152739183916
 21
416.4370371112791
 31
0.0
  0
LINE
  5
7FB
330
2
100
AcDbEntity
  8
0
100
AcDbLine
 10
66.71563991839184
 20
507.966486111279
 30
0.0
 11
66.71557891839166
 21
423.966486111279
 31
0.0
  0
LINE
  5
7FC
330
2
100
AcDbEntity
  8
0
100
AcDbLine
 10
114.2155789183918
 20
512.9664861112789
 30
0.0
 11
114.2155789183918
 21
473.4664861112789
 31
0.0
  0
LINE
  5
803
330
2
100
AcDbEntity
  8
0
100
AcDbLine
 10
123.7155789183916
 20
494.966486111279
 30
0.0
 11
114.2155789183916
 21
494.966486111279
 31
0.0
  0
LINE
  5
804
330
2
100
AcDbEntity
  8
0
100
AcDbLine
 10
114.2155789183918
 20
510.9664861112789
 30
0.0
 11
123.7155789183918
 21
510.9664861112789
 31
0.0
  0
LINE
  5
805
330
2
100
AcDbEntity
  8
0
100
AcDbLine
 10
123.7155789183917
 20
490.9664861112789
 30
0.0
 11
123.7155789183918
 21
510.9664861112789
 31
0.0
  0
ARC
  5
808
330
2
100
AcDbEntity
  8
0
100
AcDbCircle
 10
71.71563991839184
 20
507.9664861112791
 30
0.0
 40
5.0
100
AcDbArc
 50
90.0
 51
180.0
  0
LINE
  5
809
330
2
100
AcDbEntity
  8
0
100
AcDbLine
 10
71.71557891839189
 20
512.9664861112789
 30
0.0
 11
114.2155789183918
 21
512.9664861112789
 31
0.0
  0
LINE
  5
80A
330
2
100
AcDbEntity
  8
0
100
AcDbLine
 10
114.2155789183916
 20
494.966486111279
 30
0.0
 11
70.24060291839169
 21
494.966486111279
 31
0.0
  0
LINE
  5
80E
330
2
100
AcDbEntity
  8
0
100
AcDbLine
 10
123.7155789183916
 20
436.966486111279
 30
0.0
 11
114.2155789183916
 21
436.966486111279
 31
0.0
  0
LINE
  5
80F
330
2
100
AcDbEntity
  8
0
100
AcDbLine
 10
114.2155789183916
 20
420.966486111279
 30
0.0
 11
123.7155789183916
 21
420.966486111279
 31
0.0
  0
LINE
  5
810
330
2
100
AcDbEntity
  8
0
100
AcDbLine
 10
123.7155789183916
 20
420.966486111279
 30
0.0
 11
123.7155789183916
 21
440.966486111279
 31
0.0
  0
ARC
  5
813
330
2
100
AcDbEntity
  8
0
100
AcDbCircle
 10
114.2155789183916
 20
426.696650111279
 30
0.0
 40
3.0
100
AcDbArc
 50
0.0
 51
90.0
  0
ARC
  5
814
330
2
100
AcDbEntity
  8
0
100
AcDbCircle
 10
114.2155789183916
 20
426.696650111279
 30
0.0
 40
4.5
100
AcDbArc
 50
0.0
 51
90.0
  0
LINE
  5
815
330
2
100
AcDbEntity
  8
0
100
AcDbLine
 10
114.2155789183916
 20
436.966486111279
 30
0.0
 11
70.24060291839169
 21
436.966486111279
 31
0.0
  0
LINE
  5
817
330
2
100
AcDbEntity
  8
0
100
AcDbLine
 10
71.71557891839166
 20
418.9664861112789
 30
0.0
 11
114.2155789183916
 21
418.9664861112789
 31
0.0
  0
LINE
  5
818
330
2
100
AcDbEntity
  8
HOJO
100
AcDbLine
 10
117.2155789183916
 20
422.696650111279
 30
0.0
 11
118.7155789183916
 21
422.196650111279
 31
0.0
  0
LINE
  5
819
330
2
100
AcDbEntity
  8
HOJO
100
AcDbLine
 10
115.7155789183916
 20
421.696650111279
 30
0.0
 11
117.2155789183916
 21
422.196650111279
 31
0.0
  0
LINE
  5
81A
330
2
100
AcDbEntity
  8
0
100
AcDbLine
 10
118.7155789183916
 20
426.696650111279
 30
0.0
 11
118.7155789183916
 21
422.196650111279
 31
0.0
  0
LINE
  5
81B
330
2
100
AcDbEntity
  8
0
100
AcDbLine
 10
117.2155789183916
 20
426.696650111279
 30
0.0
 11
117.2155789183916
 21
422.196650111279
 31
0.0
  0
LINE
  5
81C
330
2
100
AcDbEntity
  8
0
100
AcDbLine
 10
115.7155789183916
 20
426.696650111279
 30
0.0
 11
115.7155789183916
 21
421.6810551112789
 31
0.0
  0
ARC
  5
81D
330
2
100
AcDbEntity
  8
0
100
AcDbCircle
 10
114.2155789183916
 20
426.696650111279
 30
0.0
 40
1.5
100
AcDbArc
 50
0.0
 51
90.0
  0
ARC
  5
81E
330
2
100
AcDbEntity
  8
0
100
AcDbCircle
 10
71.71557891839166
 20
423.966486111279
 30
0.0
 40
5.0
100
AcDbArc
 50
180.0
 51
270.0
  0
LINE
  5
8D7
330
2
100
AcDbEntity
  8
CENTER
100
AcDbLine
 10
443.0632649183917
 20
405.9664861112788
 30
0.0
 11
422.3679529183918
 21
405.9664861112788
 31
0.0
  0
LINE
  5
8D8
330
2
100
AcDbEntity
  8
CENTER
100
AcDbLine
 10
432.7156089183918
 20
416.3141421112787
 30
0.0
 11
432.7156089183918
 21
395.6188301112789
 31
0.0
  0
LINE
  5
8D9
330
2
100
AcDbEntity
  8
CENTER
100
AcDbLine
 10
443.0632649183917
 20
525.9664861112789
 30
0.0
 11
422.3679529183918
 21
525.9664861112789
 31
0.0
  0
LINE
  5
8DA
330
2
100
AcDbEntity
  8
CENTER
100
AcDbLine
 10
432.7156089183918
 20
536.3141421112788
 30
0.0
 11
432.7156089183918
 21
515.618830111279
 31
0.0
  0
LINE
  5
8DB
330
2
100
AcDbEntity
  8
CENTER
100
AcDbLine
 10
348.0632649183917
 20
525.9664861112789
 30
0.0
 11
327.3679529183918
 21
525.9664861112789
 31
0.0
  0
LINE
  5
8DC
330
2
100
AcDbEntity
  8
CENTER
100
AcDbLine
 10
337.7156089183918
 20
536.3141421112788
 30
0.0
 11
337.7156089183918
 21
515.618830111279
 31
0.0
  0
TEXT
  5
8E2
330
2
100
AcDbEntity
  8
TITLE
100
AcDbText
 10
536.106330339143
 20
479.2563302238108
 30
0.0
 40
7.5
  1
HLMN-32L-1200~1800-T40WT
 41
0.8
100
AcDbText
  0
TEXT
  5
8E3
330
2
100
AcDbEntity
  8
TITLE
100
AcDbText
 10
536.106330339143
 20
455.2563302238109
 30
0.0
 40
7.5
  1
HLMN-32L-1200~1800-T60WT
 41
0.8
100
AcDbText
  0
TEXT
  5
8E4
330
2
100
AcDbEntity
  8
TITLE
100
AcDbText
 10
536.106330339143
 20
467.2563302238109
 30
0.0
 40
7.5
  1
HLMN-32L-1200~1800-T60T
 41
0.8
100
AcDbText
  0
TEXT
  5
8E7
330
2
100
AcDbEntity
  8
TITLE
100
AcDbText
 10
536.106330339143
 20
431.2563302238109
 30
0.0
 40
7.5
  1
HLMN-32L-600~900-T90WT
 41
0.8
100
AcDbText
  0
TEXT
  5
8E8
330
2
100
AcDbEntity
  8
TITLE
100
AcDbText
 10
536.106330339143
 20
443.2563302238109
 30
0.0
 40
7.5
  1
HLMN-32L-600~900-T90T
 41
0.8
100
AcDbText
  0
TEXT
  5
8E9
330
2
100
AcDbEntity
  8
TITLE
100
AcDbText
 10
689.770711284765
 20
443.2563302238109
 30
0.0
 40
7.5
  1
HLMN-32L-600~900-S90T
 41
0.8
100
AcDbText
  0
TEXT
  5
8EA
330
2
100
AcDbEntity
  8
TITLE
100
AcDbText
 10
689.770711284765
 20
431.2563302238109
 30
0.0
 40
7.5
  1
HLMN-32L-600~900-S90WT
 41
0.8
100
AcDbText
  0
TEXT
  5
8ED
330
2
100
AcDbEntity
  8
TITLE
100
AcDbText
 10
689.770711284765
 20
467.2563302238109
 30
0.0
 40
7.5
  1
HLMN-32L-1200~1800-S60T
 41
0.8
100
AcDbText
  0
TEXT
  5
8EE
330
2
100
AcDbEntity
  8
TITLE
100
AcDbText
 10
689.770711284765
 20
455.2563302238109
 30
0.0
 40
7.5
  1
HLMN-32L-1200~1800-S60WT
 41
0.8
100
AcDbText
  0
TEXT
  5
8EF
330
2
100
AcDbEntity
  8
TITLE
100
AcDbText
 10
689.770711284765
 20
479.2563302238108
 30
0.0
 40
7.5
  1
HLMN-32L-1200~1800-S40WT
 41
0.8
100
AcDbText
  0
TEXT
  5
8F0
330
2
100
AcDbEntity
  8
TITLE
100
AcDbText
 10
689.770711284765
 20
491.2563302238108
 30
0.0
 40
7.5
  1
HLMN-32L-1200~1800-S40T
 41
0.8
100
AcDbText
  0
LINE
  5
9AC
330
2
100
AcDbEntity
  8
0
100
AcDbLine
 10
367.9404009183917
 20
146.1585631112789
 30
0.0
 11
366.2156089183917
 21
143.9500981112789
 31
0.0
  0
LINE
  5
9AD
330
2
100
AcDbEntity
  8
0
100
AcDbLine
 10
366.2156089183917
 20
133.7576841112789
 30
0.0
 11
368.0481889183918
 21
131.9085631112789
 31
0.0
  0
LINE
  5
9AE
330
2
100
AcDbEntity
  8
CENTER
100
AcDbLine
 10
330.1432218726056
 20
207.9085631112789
 30
0.0
 11
440.2879859740587
 21
207.9085631112789
 31
0.0
  0
LINE
  5
9AF
330
2
100
AcDbEntity
  8
0
100
AcDbLine
 10
309.2156089183918
 20
67.90856711127898
 30
0.0
 11
461.2156089183918
 21
67.90856711127898
 31
0.0
  0
LINE
  5
9B0
330
2
100
AcDbEntity
  8
0
100
AcDbLine
 10
309.2156089183918
 20
85.90856711127898
 30
0.0
 11
461.2156089183918
 21
85.90856711127898
 31
0.0
  0
LINE
  5
9B1
330
2
100
AcDbEntity
  8
0
100
AcDbLine
 10
358.712190918392
 20
272.9085631112789
 30
0.0
 11
411.7189959183918
 21
272.9085631112789
 31
0.0
  0
CIRCLE
  5
9B2
330
2
100
AcDbEntity
  8
0
100
AcDbCircle
 10
385.2156089183918
 20
207.9085631112789
 30
0.0
 40
39.0
  0
ARC
  5
9B3
330
2
100
AcDbEntity
  8
0
100
AcDbCircle
 10
385.2156089183918
 20
207.9085631112789
 30
0.0
 40
44.0
100
AcDbArc
 50
12.52323999999984
 51
167.476898
  0
ARC
  5
9B4
330
2
100
AcDbEntity
  8
0
100
AcDbCircle
 10
385.2156089183918
 20
207.9085631112789
 30
0.0
 40
41.09999799999999
100
AcDbArc
 50
167.476898
 51
12.52323999999984
  0
LINE
  5
9B5
330
2
100
AcDbEntity
  8
0
100
AcDbLine
 10
359.7156089183918
 20
117.0085691112789
 30
0.0
 11
410.7156089183917
 21
117.0085691112789
 31
0.0
  0
LINE
  5
9B6
330
2
100
AcDbEntity
  8
0
100
AcDbLine
 10
410.7156089183917
 20
119.9085631112789
 30
0.0
 11
359.7156089183918
 21
119.9085631112789
 31
0.0
  0
LINE
  5
9B7
330
2
100
AcDbEntity
  8
0
100
AcDbLine
 10
408.9729939183919
 20
90.90856711127901
 30
0.0
 11
361.4581929183918
 21
90.90856711127901
 31
0.0
  0
LINE
  5
9B8
330
2
100
AcDbEntity
  8
0
100
AcDbLine
 10
312.6655599183918
 20
242.7941831112789
 30
0.0
 11
354.1622029183918
 21
271.4886261112789
 31
0.0
  0
LINE
  5
9B9
330
2
100
AcDbEntity
  8
0
100
AcDbLine
 10
71.71558291839187
 20
196.9085631112789
 30
0.0
 11
114.2156049183918
 21
196.9085631112789
 31
0.0
  0
LINE
  5
9BA
330
2
100
AcDbEntity
  8
0
100
AcDbLine
 10
114.2156049183918
 20
178.9085631112789
 30
0.0
 11
70.24057291839199
 21
178.9085631112789
 31
0.0
  0
LINE
  5
9BB
330
2
100
AcDbEntity
  8
0
100
AcDbLine
 10
71.71558291839187
 20
102.908567111279
 30
0.0
 11
114.2156049183918
 21
102.908567111279
 31
0.0
  0
LINE
  5
9BC
330
2
100
AcDbEntity
  8
0
100
AcDbLine
 10
114.2156049183918
 20
120.9085631112789
 30
0.0
 11
70.24057291839199
 21
120.9085631112789
 31
0.0
  0
LINE
  5
9BD
330
2
100
AcDbEntity
  8
CENTER
100
AcDbLine
 10
56.71559791839309
 20
149.9085631112789
 30
0.0
 11
342.1019609183918
 21
149.9085631112789
 31
0.0
  0
LINE
  5
9BE
330
2
100
AcDbEntity
  8
0
100
AcDbLine
 10
66.7156129183918
 20
191.9085631112789
 30
0.0
 11
66.71558291839187
 21
107.9085561112789
 31
0.0
  0
ARC
  5
9BF
330
2
100
AcDbEntity
  8
0
100
AcDbCircle
 10
71.71558291839187
 20
107.908567111279
 30
0.0
 40
5.0
100
AcDbArc
 50
180.0
 51
270.0
  0
ARC
  5
9C0
330
2
100
AcDbEntity
  8
0
100
AcDbCircle
 10
71.7156129183918
 20
191.9085631112789
 30
0.0
 40
5.0
100
AcDbArc
 50
90.0
 51
180.0
  0
LINE
  5
9C1
330
2
100
AcDbEntity
  8
CENTER
100
AcDbLine
 10
337.7156089183918
 20
90.90856711127901
 30
0.0
 11
337.7156089183918
 21
62.90856711127901
 31
0.0
  0
LINE
  5
9C2
330
2
100
AcDbEntity
  8
0
100
AcDbLine
 10
309.2156089183918
 20
94.40856711127901
 30
0.0
 11
309.2156089183918
 21
67.90856711127898
 31
0.0
  0
LINE
  5
9C3
330
2
100
AcDbEntity
  8
HIDS
100
AcDbLine
 10
331.2156089183918
 20
85.90856711127898
 30
0.0
 11
331.2156089183918
 21
67.90856711127898
 31
0.0
  0
LINE
  5
9C4
330
2
100
AcDbEntity
  8
HIDS
100
AcDbLine
 10
344.2156089183918
 20
85.90856711127898
 30
0.0
 11
344.2156089183918
 21
67.90856711127898
 31
0.0
  0
LINE
  5
9C5
330
2
100
AcDbEntity
  8
0
100
AcDbLine
 10
323.2156089183918
 20
83.84200611127898
 30
0.0
 11
323.2156089183918
 21
67.90856711127898
 31
0.0
  0
LINE
  5
9C6
330
2
100
AcDbEntity
  8
0
100
AcDbLine
 10
123.7156049183918
 20
194.9085631112789
 30
0.0
 11
242.7156089183918
 21
194.9085631112789
 31
0.0
  0
LINE
  5
9C7
330
2
100
AcDbEntity
  8
0
100
AcDbLine
 10
123.7156049183918
 20
104.908567111279
 30
0.0
 11
242.7156089183918
 21
104.908567111279
 31
0.0
  0
LINE
  5
9C8
330
2
100
AcDbEntity
  8
0
100
AcDbLine
 10
233.7156089183918
 20
192.9085631112789
 30
0.0
 11
233.7156089183918
 21
106.908548111279
 31
0.0
  0
LINE
  5
9C9
330
2
100
AcDbEntity
  8
0
100
AcDbLine
 10
114.2156049183918
 20
196.9085631112789
 30
0.0
 11
114.2156049183918
 21
102.908567111279
 31
0.0
  0
LINE
  5
9CA
330
2
100
AcDbEntity
  8
0
100
AcDbLine
 10
123.7156049183918
 20
104.908567111279
 30
0.0
 11
123.7156049183918
 21
194.9085631112789
 31
0.0
  0
LINE
  5
9CB
330
2
100
AcDbEntity
  8
0
100
AcDbLine
 10
123.7156049183918
 20
115.4992651112789
 30
0.0
 11
232.6779189183919
 21
115.4992651112789
 31
0.0
  0
LINE
  5
9CC
330
2
100
AcDbEntity
  8
0
100
AcDbLine
 10
123.7156049183918
 20
115.4992771112789
 30
0.0
 11
114.2156049183918
 21
115.4992771112789
 31
0.0
  0
LINE
  5
9CD
330
2
100
AcDbEntity
  8
0
100
AcDbLine
 10
114.2156049183918
 20
104.908567111279
 30
0.0
 11
123.7156049183918
 21
104.908567111279
 31
0.0
  0
ARC
  5
9CE
330
2
100
AcDbEntity
  8
0
100
AcDbCircle
 10
235.7156089183918
 20
106.908567111279
 30
0.0
 40
2.0
100
AcDbArc
 50
180.0
 51
270.0
  0
LINE
  5
9CF
330
2
100
AcDbEntity
  8
0
100
AcDbLine
 10
123.7156049183918
 20
184.3178651112789
 30
0.0
 11
232.6779189183919
 21
184.3178651112789
 31
0.0
  0
LINE
  5
9D0
330
2
100
AcDbEntity
  8
0
100
AcDbLine
 10
123.7156049183918
 20
184.3178651112789
 30
0.0
 11
114.2156049183918
 21
184.3178651112789
 31
0.0
  0
LINE
  5
9D1
330
2
100
AcDbEntity
  8
0
100
AcDbLine
 10
115.7156049183918
 20
178.4379671112789
 30
0.0
 11
115.7156049183918
 21
173.4223651112789
 31
0.0
  0
LINE
  5
9D2
330
2
100
AcDbEntity
  8
0
100
AcDbLine
 10
117.2156049183918
 20
178.4379671112789
 30
0.0
 11
117.2156049183918
 21
173.9379671112789
 31
0.0
  0
LINE
  5
9D3
330
2
100
AcDbEntity
  8
0
100
AcDbLine
 10
118.7156049183918
 20
178.4379671112789
 30
0.0
 11
118.7156049183918
 21
173.9379671112789
 31
0.0
  0
LINE
  5
9D4
330
2
100
AcDbEntity
  8
HOJO
100
AcDbLine
 10
115.7156049183918
 20
173.4379671112789
 30
0.0
 11
117.2156049183918
 21
173.9379671112789
 31
0.0
  0
LINE
  5
9D5
330
2
100
AcDbEntity
  8
HOJO
100
AcDbLine
 10
117.2156049183918
 20
174.4379671112789
 30
0.0
 11
118.7156049183918
 21
173.9379671112789
 31
0.0
  0
ARC
  5
9D6
330
2
100
AcDbEntity
  8
0
100
AcDbCircle
 10
114.2156049183918
 20
178.4379671112789
 30
0.0
 40
1.5
100
AcDbArc
 50
0.0
 51
90.0
  0
ARC
  5
9D7
330
2
100
AcDbEntity
  8
0
100
AcDbCircle
 10
114.2156049183918
 20
178.4379671112789
 30
0.0
 40
4.5
100
AcDbArc
 50
0.0
 51
90.0
  0
ARC
  5
9D8
330
2
100
AcDbEntity
  8
0
100
AcDbCircle
 10
114.2156049183918
 20
178.4379671112789
 30
0.0
 40
3.0
100
AcDbArc
 50
0.0
 51
90.0
  0
LINE
  5
9DA
330
2
100
AcDbEntity
  8
0
100
AcDbLine
 10
114.2156049183918
 20
194.9085631112789
 30
0.0
 11
123.7156049183918
 21
194.9085631112789
 31
0.0
  0
ARC
  5
9E4
330
2
100
AcDbEntity
  8
0
100
AcDbCircle
 10
235.7156089183918
 20
192.9085941112789
 30
0.0
 40
2.0
100
AcDbArc
 50
90.0
 51
180.0
  0
LINE
  5
9E5
330
2
100
AcDbEntity
  8
0
100
AcDbLine
 10
328.5746169183919
 20
155.8255711112789
 30
0.0
 11
342.2623919183918
 21
217.449274111279
 31
0.0
  0
LINE
  5
9E6
330
2
100
AcDbEntity
  8
0
100
AcDbLine
 10
331.4056109183918
 20
155.196756111279
 30
0.0
 11
345.0934159183919
 21
216.820444111279
 31
0.0
  0
LINE
  5
9E7
330
2
100
AcDbEntity
  8
0
100
AcDbLine
 10
309.2156089183918
 20
94.40856711127901
 30
0.0
 11
309.2156089183918
 21
231.4085631112789
 31
0.0
  0
ARC
  5
9E8
330
2
100
AcDbEntity
  8
0
100
AcDbCircle
 10
488.9244099183919
 20
162.9085631112789
 30
0.0
 40
185.2088929999999
100
AcDbArc
 50
166.0019069999989
 51
193.998093000001
  0
LINE
  5
9E9
330
2
100
AcDbEntity
  8
0
100
AcDbLine
 10
297.2156089183918
 20
226.9085631112789
 30
0.0
 11
297.2156089183918
 21
98.90856711127902
 31
0.0
  0
LINE
  5
9EA
330
2
100
AcDbEntity
  8
0
100
AcDbLine
 10
242.7156089183918
 20
194.9085631112789
 30
0.0
 11
242.7156089183918
 21
104.908567111279
 31
0.0
  0
LINE
  5
9EB
330
2
100
AcDbEntity
  8
0
100
AcDbLine
 10
288.7156089183918
 20
123.5562991112789
 30
0.0
 11
288.7156089183918
 21
224.9086851112789
 31
0.0
  0
LINE
  5
9EC
330
2
100
AcDbEntity
  8
CENTER
100
AcDbLine
 10
225.0391648900504
 20
162.9085631112789
 30
0.0
 11
316.8857984738165
 21
162.9085631112789
 31
0.0
  0
LINE
  5
9ED
330
2
100
AcDbEntity
  8
0
100
AcDbLine
 10
304.2156089183918
 20
98.90856711127902
 30
0.0
 11
297.2156089183918
 21
98.90856711127902
 31
0.0
  0
LINE
  5
9EE
330
2
100
AcDbEntity
  8
0
100
AcDbLine
 10
297.2156089183918
 20
103.0053841112789
 30
0.0
 11
242.7156089183918
 21
104.908567111279
 31
0.0
  0
LINE
  5
9EF
330
2
100
AcDbEntity
  8
0
100
AcDbLine
 10
242.7156089183918
 20
114.389566111279
 30
0.0
 11
297.2156089183918
 21
114.389566111279
 31
0.0
  0
LINE
  5
9F0
330
2
100
AcDbEntity
  8
0
100
AcDbLine
 10
290.7156089183918
 20
98.90846811127898
 30
0.0
 11
297.2156089183918
 21
98.90846811127898
 31
0.0
  0
ARC
  5
9F1
330
2
100
AcDbEntity
  8
0
100
AcDbCircle
 10
290.7156089183918
 20
100.9084681112789
 30
0.0
 40
2.0
100
AcDbArc
 50
180.2607729999994
 51
270.0
  0
ARC
  5
9F2
330
2
100
AcDbEntity
  8
0
100
AcDbCircle
 10
286.215653918392
 20
100.887987111279
 30
0.0
 40
2.5
100
AcDbArc
 50
0.2607730000011057
 51
88.00000000000284
  0
LINE
  5
9F3
330
2
100
AcDbEntity
  8
0
100
AcDbLine
 10
242.7156089183918
 20
129.4025671112789
 30
0.0
 11
286.7156089183918
 21
129.4025671112789
 31
0.0
  0
LINE
  5
9F4
330
2
100
AcDbEntity
  8
0
100
AcDbLine
 10
289.2835709183918
 20
122.3415701112789
 30
0.0
 11
297.2156089183918
 21
122.3415701112789
 31
0.0
  0
ARC
  5
9F5
330
2
100
AcDbEntity
  8
0
100
AcDbCircle
 10
359.7156089183918
 20
148.9085631112789
 30
0.0
 40
29.0
100
AcDbArc
 50
167.476898
 51
270.0
  0
ARC
  5
9F6
330
2
100
AcDbEntity
  8
0
100
AcDbCircle
 10
359.7156089183918
 20
148.9085631112789
 30
0.0
 40
31.89999999999999
100
AcDbArc
 50
167.476898
 51
270.0
  0
ARC
  5
9F7
330
2
100
AcDbEntity
  8
0
100
AcDbCircle
 10
304.2156239183918
 20
93.90854811127894
 30
0.0
 40
5.0
100
AcDbArc
 50
0.0
 51
90.0
  0
ARC
  5
9F8
330
2
100
AcDbEntity
  8
0
100
AcDbCircle
 10
361.4581929183918
 20
87.90856711127899
 30
0.0
 40
3.0
100
AcDbArc
 50
90.0
 51
135.0003050000002
  0
ARC
  5
9F9
330
2
100
AcDbEntity
  8
0
100
AcDbCircle
 10
359.2156089183918
 20
86.90856711127898
 30
0.0
 40
1.0
100
AcDbArc
 50
270.0
 51
0.0
  0
LINE
  5
9FA
330
2
100
AcDbEntity
  8
0
100
AcDbLine
 10
359.3370079183919
 20
90.02988611127898
 30
0.0
 11
356.6802079183919
 21
87.37306811127899
 31
0.0
  0
ARC
  5
9FB
330
2
100
AcDbEntity
  8
0
100
AcDbCircle
 10
353.1445939183918
 20
90.90856711127901
 30
0.0
 40
5.0
100
AcDbArc
 50
270.0
 51
315.0000920000004
  0
LINE
  5
9FC
330
2
100
AcDbEntity
  8
0
100
AcDbLine
 10
360.2156089183917
 20
89.972688111279
 30
0.0
 11
360.2156089183917
 21
86.90856711127898
 31
0.0
  0
LINE
  5
9FD
330
2
100
AcDbEntity
  8
0
100
AcDbLine
 10
366.2156089183917
 20
143.9500981112789
 30
0.0
 11
366.2156089183917
 21
133.7576841112789
 31
0.0
  0
LINE
  5
9FE
330
2
100
AcDbEntity
  8
0
100
AcDbLine
 10
304.2156089183918
 20
226.9085631112789
 30
0.0
 11
297.2156089183918
 21
226.9085631112789
 31
0.0
  0
LINE
  5
9FF
330
2
100
AcDbEntity
  8
0
100
AcDbLine
 10
242.7156089183918
 20
194.9085631112789
 30
0.0
 11
288.7156089183918
 21
196.5149171112789
 31
0.0
  0
LINE
  5
A00
330
2
100
AcDbEntity
  8
0
100
AcDbLine
 10
287.9833699183918
 20
202.6763401112789
 30
0.0
 11
282.2688619183918
 21
196.9618171112789
 31
0.0
  0
ARC
  5
A01
330
2
100
AcDbEntity
  8
0
100
AcDbCircle
 10
280.5010849183918
 20
198.7295931112789
 30
0.0
 40
2.5
100
AcDbArc
 50
271.999999999997
 51
315.0
  0
ARC
  5
A02
330
2
100
AcDbEntity
  8
0
100
AcDbCircle
 10
286.2156089183918
 20
204.444101111279
 30
0.0
 40
2.5
100
AcDbArc
 50
315.0
 51
0.0
  0
LINE
  5
A03
330
2
100
AcDbEntity
  8
0
100
AcDbLine
 10
290.7156089183918
 20
226.9086701112789
 30
0.0
 11
297.2156089183918
 21
226.9086701112789
 31
0.0
  0
ARC
  5
A04
330
2
100
AcDbEntity
  8
0
100
AcDbCircle
 10
290.7156239183919
 20
224.9086851112789
 30
0.0
 40
2.0
100
AcDbArc
 50
90.0
 51
180.0
  0
LINE
  5
A05
330
2
100
AcDbEntity
  8
0
100
AcDbLine
 10
309.2156089183918
 20
231.4085631112789
 30
0.0
 11
309.2156089183918
 21
236.2141211112789
 31
0.0
  0
ARC
  5
A06
330
2
100
AcDbEntity
  8
0
100
AcDbCircle
 10
304.2155779183917
 20
231.9085631112789
 30
0.0
 40
5.0
100
AcDbArc
 50
270.0
 51
0.0
  0
ARC
  5
A07
330
2
100
AcDbEntity
  8
0
100
AcDbCircle
 10
317.2156089183918
 20
236.214166111279
 30
0.0
 40
8.0
100
AcDbArc
 50
124.6638029999975
 51
180.0
  0
ARC
  5
A08
330
2
100
AcDbEntity
  8
0
100
AcDbCircle
 10
358.712190918392
 20
264.9085631112789
 30
0.0
 40
8.0
100
AcDbArc
 50
90.0
 51
124.6636959999983
  0
LINE
  5
A09
330
2
100
AcDbEntity
  8
0
100
AcDbLine
 10
457.7655959183918
 20
242.7941831112789
 30
0.0
 11
416.2690139183919
 21
271.4886261112789
 31
0.0
  0
LINE
  5
A0A
330
2
100
AcDbEntity
  8
CENTER
100
AcDbLine
 10
385.2156089183919
 20
282.9085631112789
 30
0.0
 11
385.2156089183918
 21
57.90856711127898
 31
0.0
  0
LINE
  5
A0B
330
2
100
AcDbEntity
  8
CENTER
100
AcDbLine
 10
432.7156089183918
 20
90.90856711127901
 30
0.0
 11
432.7156089183918
 21
62.90856711127895
 31
0.0
  0
LINE
  5
A0C
330
2
100
AcDbEntity
  8
HIDS
100
AcDbLine
 10
426.2156089183918
 20
85.90856711127898
 30
0.0
 11
426.2156089183918
 21
67.90856711127898
 31
0.0
  0
LINE
  5
A0D
330
2
100
AcDbEntity
  8
HIDS
100
AcDbLine
 10
439.2156089183917
 20
85.90856711127898
 30
0.0
 11
439.2156089183917
 21
67.90856711127898
 31
0.0
  0
LINE
  5
A0E
330
2
100
AcDbEntity
  8
0
100
AcDbLine
 10
447.2156089183918
 20
83.84200611127898
 30
0.0
 11
447.2156089183918
 21
67.90856711127898
 31
0.0
  0
LINE
  5
A0F
330
2
100
AcDbEntity
  8
0
100
AcDbLine
 10
461.2156089183918
 20
236.2141211112789
 30
0.0
 11
461.2156089183918
 21
67.90856711127898
 31
0.0
  0
LINE
  5
A10
330
2
100
AcDbEntity
  8
0
100
AcDbLine
 10
428.1687949183918
 20
217.4493501112789
 30
0.0
 11
441.8565999183918
 21
155.8256321112789
 31
0.0
  0
LINE
  5
A11
330
2
100
AcDbEntity
  8
0
100
AcDbLine
 10
425.3378009183918
 20
216.8205201112789
 30
0.0
 11
439.0256059183919
 21
155.1968091112789
 31
0.0
  0
ARC
  5
A12
330
2
100
AcDbEntity
  8
0
100
AcDbCircle
 10
410.7156089183917
 20
148.9085631112789
 30
0.0
 40
29.0
100
AcDbArc
 50
270.0
 51
12.52323999999984
  0
ARC
  5
A13
330
2
100
AcDbEntity
  8
0
100
AcDbCircle
 10
410.7156089183917
 20
148.9085631112789
 30
0.0
 40
31.89999999999999
100
AcDbArc
 50
270.0
 51
12.52323999999984
  0
ARC
  5
A14
330
2
100
AcDbEntity
  8
0
100
AcDbCircle
 10
417.2865929183918
 20
90.90856711127901
 30
0.0
 40
5.0
100
AcDbArc
 50
225.0
 51
270.0
  0
ARC
  5
A15
330
2
100
AcDbEntity
  8
0
100
AcDbCircle
 10
408.9729939183919
 20
87.90856711127899
 30
0.0
 40
3.0
100
AcDbArc
 50
45.00015999999781
 51
90.0
  0
ARC
  5
A16
330
2
100
AcDbEntity
  8
0
100
AcDbCircle
 10
411.2156089183917
 20
86.90856711127898
 30
0.0
 40
1.0
100
AcDbArc
 50
180.0
 51
270.0
  0
LINE
  5
A17
330
2
100
AcDbEntity
  8
0
100
AcDbLine
 10
411.0942099183919
 20
90.02988611127898
 30
0.0
 11
413.7511919183919
 21
87.37302611127899
 31
0.0
  0
LINE
  5
A18
330
2
100
AcDbEntity
  8
0
100
AcDbLine
 10
410.2156089183917
 20
89.972688111279
 30
0.0
 11
410.2156089183917
 21
86.90856711127898
 31
0.0
  0
LINE
  5
A19
330
2
100
AcDbEntity
  8
0
100
AcDbLine
 10
394.7156089183918
 20
146.1585631112789
 30
0.0
 11
400.4118059183919
 21
146.1585631112789
 31
0.0
  0
LINE
  5
A1A
330
2
100
AcDbEntity
  8
0
100
AcDbLine
 10
400.7113969183918
 20
140.0537281112789
 30
0.0
 11
397.0535909183918
 21
140.0537281112789
 31
0.0
  0
LINE
  5
A1B
330
2
100
AcDbEntity
  8
0
100
AcDbLine
 10
397.0535909183918
 20
144.4144301112789
 30
0.0
 11
401.4866049183917
 21
144.411539111279
 31
0.0
  0
LINE
  5
A1C
330
2
100
AcDbEntity
  8
0
100
AcDbLine
 10
400.0942099183919
 20
138.5697041112789
 30
0.0
 11
402.3222069183918
 21
133.392946111279
 31
0.0
  0
LINE
  5
A1D
330
2
100
AcDbEntity
  8
0
100
AcDbLine
 10
397.0535909183918
 20
144.4144301112789
 30
0.0
 11
397.0535909183918
 21
140.0537281112789
 31
0.0
  0
LINE
  5
A1E
330
2
100
AcDbEntity
  8
0
100
AcDbLine
 10
395.4208089183919
 20
144.4144301112789
 30
0.0
 11
395.4208089183919
 21
133.392946111279
 31
0.0
  0
LINE
  5
A1F
330
2
100
AcDbEntity
  8
0
100
AcDbLine
 10
384.2878129183919
 20
144.4144301112789
 30
0.0
 11
384.2878129183919
 21
133.4671651112789
 31
0.0
  0
LINE
  5
A20
330
2
100
AcDbEntity
  8
0
100
AcDbLine
 10
386.0692159183918
 20
144.4144301112789
 30
0.0
 11
386.0692159183918
 21
133.4671651112789
 31
0.0
  0
LINE
  5
A21
330
2
100
AcDbEntity
  8
0
100
AcDbLine
 10
367.8114029183918
 20
142.935991111279
 30
0.0
 11
367.8114029183918
 21
134.7264041112789
 31
0.0
  0
LINE
  5
A22
330
2
100
AcDbEntity
  8
0
100
AcDbLine
 10
383.5827959183918
 20
133.4671651112789
 30
0.0
 11
384.2878129183919
 21
133.4671651112789
 31
0.0
  0
LINE
  5
A23
330
2
100
AcDbEntity
  8
0
100
AcDbLine
 10
383.5827959183918
 20
131.9085631112789
 30
0.0
 11
386.6628129183918
 21
131.9085631112789
 31
0.0
  0
LINE
  5
A24
330
2
100
AcDbEntity
  8
0
100
AcDbLine
 10
371.8562029183917
 20
140.1839691112789
 30
0.0
 11
375.7156089183918
 21
140.1839691112789
 31
0.0
  0
LINE
  5
A25
330
2
100
AcDbEntity
  8
0
100
AcDbLine
 10
374.3425919183919
 20
131.9085631112789
 30
0.0
 11
375.7156089183918
 21
131.9085631112789
 31
0.0
  0
LINE
  5
A26
330
2
100
AcDbEntity
  8
0
100
AcDbLine
 10
374.3425919183919
 20
138.6253681112789
 30
0.0
 11
371.8562029183917
 21
138.6253681112789
 31
0.0
  0
LINE
  5
A27
330
2
100
AcDbEntity
  8
0
100
AcDbLine
 10
371.8562029183917
 20
140.1839691112789
 30
0.0
 11
371.8562029183917
 21
138.6253681112789
 31
0.0
  0
LINE
  5
A28
330
2
100
AcDbEntity
  8
0
100
AcDbLine
 10
374.3425919183919
 20
133.0444891112789
 30
0.0
 11
374.3425919183919
 21
131.9085631112789
 31
0.0
  0
LINE
  5
A29
330
2
100
AcDbEntity
  8
0
100
AcDbLine
 10
374.3425919183919
 20
133.0444891112789
 30
0.0
 11
372.9885879183918
 21
131.9085631112789
 31
0.0
  0
LINE
  5
A2A
330
2
100
AcDbEntity
  8
0
100
AcDbLine
 10
367.8114029183918
 20
134.7264041112789
 30
0.0
 11
368.9012169183918
 21
133.5784851112789
 31
0.0
  0
LINE
  5
A2B
330
2
100
AcDbEntity
  8
0
100
AcDbLine
 10
371.3738119183917
 20
133.5784851112789
 30
0.0
 11
368.9012169183918
 21
133.5784851112789
 31
0.0
  0
LINE
  5
A2C
330
2
100
AcDbEntity
  8
0
100
AcDbLine
 10
372.9885879183918
 20
131.9085631112789
 30
0.0
 11
368.0481889183918
 21
131.9085631112789
 31
0.0
  0
ARC
  5
A2D
330
2
100
AcDbEntity
  8
0
100
AcDbCircle
 10
371.3738119183917
 20
136.5472281112789
 30
0.0
 40
2.96875
100
AcDbArc
 50
270.0002140000007
 51
0.0001089999998967
  0
LINE
  5
A2E
330
2
100
AcDbEntity
  8
0
100
AcDbLine
 10
374.3425919183919
 20
137.1409851112789
 30
0.0
 11
374.3425919183919
 21
138.3284851112789
 31
0.0
  0
LINE
  5
A2F
330
2
100
AcDbEntity
  8
0
100
AcDbLine
 10
374.3425919183919
 20
138.6253681112789
 30
0.0
 11
374.3425919183919
 21
136.5472281112789
 31
0.0
  0
LINE
  5
A30
330
2
100
AcDbEntity
  8
0
100
AcDbLine
 10
383.5827959183918
 20
133.4671651112789
 30
0.0
 11
383.5827959183918
 21
131.9085631112789
 31
0.0
  0
LINE
  5
A31
330
2
100
AcDbEntity
  8
0
100
AcDbLine
 10
375.7156089183918
 20
140.1839691112789
 30
0.0
 11
375.7156089183918
 21
131.9085631112789
 31
0.0
  0
LINE
  5
A32
330
2
100
AcDbEntity
  8
0
100
AcDbLine
 10
386.0692159183918
 20
133.4671651112789
 30
0.0
 11
386.6628129183918
 21
133.4671651112789
 31
0.0
  0
LINE
  5
A33
330
2
100
AcDbEntity
  8
0
100
AcDbLine
 10
386.6628129183918
 20
133.4671651112789
 30
0.0
 11
386.6628129183918
 21
131.9085631112789
 31
0.0
  0
LINE
  5
A34
330
2
100
AcDbEntity
  8
0
100
AcDbLine
 10
397.0535909183918
 20
138.5697041112789
 30
0.0
 11
400.0942099183919
 21
138.5697041112789
 31
0.0
  0
LINE
  5
A35
330
2
100
AcDbEntity
  8
0
100
AcDbLine
 10
394.7156089183918
 20
133.392946111279
 30
0.0
 11
395.4208089183919
 21
133.392946111279
 31
0.0
  0
LINE
  5
A36
330
2
100
AcDbEntity
  8
0
100
AcDbLine
 10
397.0535909183918
 20
133.392946111279
 30
0.0
 11
397.7030049183917
 21
133.392946111279
 31
0.0
  0
LINE
  5
A37
330
2
100
AcDbEntity
  8
0
100
AcDbLine
 10
397.7030049183917
 20
131.9085631112789
 30
0.0
 11
394.7156089183918
 21
131.9085631112789
 31
0.0
  0
LINE
  5
A38
330
2
100
AcDbEntity
  8
0
100
AcDbLine
 10
397.7030049183917
 20
133.392946111279
 30
0.0
 11
397.7030049183917
 21
131.9085631112789
 31
0.0
  0
LINE
  5
A39
330
2
100
AcDbEntity
  8
0
100
AcDbLine
 10
394.7156089183918
 20
133.392946111279
 30
0.0
 11
394.7156089183918
 21
131.9085631112789
 31
0.0
  0
LINE
  5
A3A
330
2
100
AcDbEntity
  8
0
100
AcDbLine
 10
397.0535909183918
 20
138.5697041112789
 30
0.0
 11
397.0535909183918
 21
133.392946111279
 31
0.0
  0
LINE
  5
A3B
330
2
100
AcDbEntity
  8
0
100
AcDbLine
 10
384.2878129183919
 20
144.4144301112789
 30
0.0
 11
382.0303979183918
 21
144.4144301112789
 31
0.0
  0
LINE
  5
A3C
330
2
100
AcDbEntity
  8
0
100
AcDbLine
 10
380.4656089183918
 20
146.1585631112789
 30
0.0
 11
389.9656089183918
 21
146.1585631112789
 31
0.0
  0
LINE
  5
A3D
330
2
100
AcDbEntity
  8
0
100
AcDbLine
 10
374.3284019183918
 20
146.1585631112789
 30
0.0
 11
375.7156089183918
 21
144.6189821112789
 31
0.0
  0
LINE
  5
A3E
330
2
100
AcDbEntity
  8
0
100
AcDbLine
 10
374.3425919183919
 20
143.1898131112789
 30
0.0
 11
375.7156089183918
 21
143.1898131112789
 31
0.0
  0
LINE
  5
A3F
330
2
100
AcDbEntity
  8
0
100
AcDbLine
 10
374.3425919183919
 20
143.4144301112789
 30
0.0
 11
373.4436059183917
 21
144.2659851112789
 31
0.0
  0
LINE
  5
A40
330
2
100
AcDbEntity
  8
0
100
AcDbLine
 10
374.3425919183919
 20
143.4144301112789
 30
0.0
 11
374.3425919183919
 21
143.1898131112789
 31
0.0
  0
LINE
  5
A41
330
2
100
AcDbEntity
  8
0
100
AcDbLine
 10
368.8840049183918
 20
144.2659851112789
 30
0.0
 11
367.8114029183918
 21
142.935991111279
 31
0.0
  0
LINE
  5
A42
330
2
100
AcDbEntity
  8
0
100
AcDbLine
 10
373.4616109183919
 20
144.2659851112789
 30
0.0
 11
368.8840049183918
 21
144.2659851112789
 31
0.0
  0
LINE
  5
A43
330
2
100
AcDbEntity
  8
0
100
AcDbLine
 10
367.9404009183917
 20
146.1585631112789
 30
0.0
 11
374.3284019183918
 21
146.1585631112789
 31
0.0
  0
LINE
  5
A44
330
2
100
AcDbEntity
  8
0
100
AcDbLine
 10
380.4656089183918
 20
143.1898131112789
 30
0.0
 11
380.4656089183918
 21
146.1585631112789
 31
0.0
  0
LINE
  5
A45
330
2
100
AcDbEntity
  8
0
100
AcDbLine
 10
380.4656089183918
 20
143.1898131112789
 30
0.0
 11
381.5202049183918
 21
143.1898131112789
 31
0.0
  0
LINE
  5
A46
330
2
100
AcDbEntity
  8
0
100
AcDbLine
 10
382.0303979183918
 20
144.4144301112789
 30
0.0
 11
381.5202049183918
 21
143.1898131112789
 31
0.0
  0
LINE
  5
A47
330
2
100
AcDbEntity
  8
0
100
AcDbLine
 10
375.7156089183918
 20
144.6189821112789
 30
0.0
 11
375.7156089183918
 21
143.1898131112789
 31
0.0
  0
LINE
  5
A48
330
2
100
AcDbEntity
  8
0
100
AcDbLine
 10
389.9656089183918
 20
143.1898131112789
 30
0.0
 11
389.9656089183918
 21
146.1585631112789
 31
0.0
  0
LINE
  5
A49
330
2
100
AcDbEntity
  8
0
100
AcDbLine
 10
388.9746109183917
 20
143.1898131112789
 30
0.0
 11
389.9656089183918
 21
143.1898131112789
 31
0.0
  0
LINE
  5
A4A
330
2
100
AcDbEntity
  8
0
100
AcDbLine
 10
388.5444049183918
 20
144.4144301112789
 30
0.0
 11
388.9746109183917
 21
143.1898131112789
 31
0.0
  0
LINE
  5
A4B
330
2
100
AcDbEntity
  8
0
100
AcDbLine
 10
386.0692159183918
 20
144.4144301112789
 30
0.0
 11
388.5444049183918
 21
144.4144301112789
 31
0.0
  0
LINE
  5
A4C
330
2
100
AcDbEntity
  8
0
100
AcDbLine
 10
394.7156089183918
 20
146.1585631112789
 30
0.0
 11
394.7156089183918
 21
144.4144301112789
 31
0.0
  0
LINE
  5
A4D
330
2
100
AcDbEntity
  8
0
100
AcDbLine
 10
394.7156089183918
 20
144.4144301112789
 30
0.0
 11
395.4208089183919
 21
144.4144301112789
 31
0.0
  0
ARC
  5
A4E
330
2
100
AcDbEntity
  8
0
100
AcDbCircle
 10
400.4118059183919
 20
142.3548451112789
 30
0.0
 40
3.803712
100
AcDbArc
 50
286.0181269999971
 51
90.00350999999719
  0
ARC
  5
A4F
330
2
100
AcDbEntity
  8
0
100
AcDbCircle
 10
400.4118059183919
 20
142.3548451112789
 30
0.0
 40
2.320524
100
AcDbArc
 50
277.4147260000004
 51
62.41184999999839
  0
LINE
  5
A50
330
2
100
AcDbEntity
  8
0
100
AcDbLine
 10
402.0262169183918
 20
133.392946111279
 30
0.0
 11
402.3222069183918
 21
133.392946111279
 31
0.0
  0
LINE
  5
A51
330
2
100
AcDbEntity
  8
0
100
AcDbLine
 10
403.8157979183917
 20
133.392946111279
 30
0.0
 11
404.2156089183918
 21
133.392946111279
 31
0.0
  0
LINE
  5
A52
330
2
100
AcDbEntity
  8
0
100
AcDbLine
 10
402.0262169183918
 20
131.9085631112789
 30
0.0
 11
404.2156089183918
 21
131.9085631112789
 31
0.0
  0
LINE
  5
A53
330
2
100
AcDbEntity
  8
0
100
AcDbLine
 10
404.2156089183918
 20
133.392946111279
 30
0.0
 11
404.2156089183918
 21
131.9085631112789
 31
0.0
  0
LINE
  5
A54
330
2
100
AcDbEntity
  8
0
100
AcDbLine
 10
402.0262169183918
 20
133.392946111279
 30
0.0
 11
402.0262169183918
 21
131.9085631112789
 31
0.0
  0
LINE
  5
A55
330
2
100
AcDbEntity
  8
0
100
AcDbLine
 10
401.4613969183918
 20
138.698824111279
 30
0.0
 11
403.8157979183917
 21
133.392946111279
 31
0.0
  0
LINE
  5
A56
330
2
100
AcDbEntity
  8
HIDS
100
AcDbLine
 10
396.2156089183918
 20
202.9086091112789
 30
0.0
 11
396.2156089183918
 21
212.9086091112789
 31
0.0
  0
LINE
  5
A57
330
2
100
AcDbEntity
  8
HIDS
100
AcDbLine
 10
404.2156089183918
 20
202.9086241112789
 30
0.0
 11
404.2156089183918
 21
212.9086241112789
 31
0.0
  0
ARC
  5
A58
330
2
100
AcDbEntity
  8
HIDS
100
AcDbCircle
 10
385.2156089183918
 20
207.9085631112789
 30
0.0
 40
16.0
100
AcDbArc
 50
18.20990000000007
 51
341.7900999999999
  0
LINE
  5
A59
330
2
100
AcDbEntity
  8
HIDS
100
AcDbLine
 10
404.2156089183918
 20
202.9086241112789
 30
0.0
 11
396.2156089183918
 21
202.9086091112789
 31
0.0
  0
LINE
  5
A5A
330
2
100
AcDbEntity
  8
HIDS
100
AcDbLine
 10
404.2156089183918
 20
212.9086241112789
 30
0.0
 11
396.2156089183918
 21
212.9086091112789
 31
0.0
  0
ARC
  5
A5B
330
2
100
AcDbEntity
  8
0
100
AcDbCircle
 10
453.2156089183918
 20
236.214090111279
 30
0.0
 40
8.0
100
AcDbArc
 50
0.0
 51
55.33673900000156
  0
ARC
  5
A5C
330
2
100
AcDbEntity
  8
0
100
AcDbCircle
 10
411.7189959183918
 20
264.9085631112789
 30
0.0
 40
8.0
100
AcDbArc
 50
55.33668899999984
 51
90.0
  0
DIMENSION
  5
C95
330
2
100
AcDbEntity
  8
SUNPO
100
AcDbDimension
  2
*D2
 10
715.8035061110637
 20
308.911737144982
 30
0.0
 11
655.8035021110637
 21
313.8617371449819
 31
0.0
 70
    32
  3
STANDARD
100
AcDbAlignedDimension
 13
595.8034981110637
 23
282.9085631112789
 33
0.0
 14
715.8035061110637
 24
223.9085631112789
 34
0.0
100
AcDbRotatedDimension
  0
DIMENSION
  5
C96
330
2
100
AcDbEntity
  8
SUNPO
100
AcDbDimension
  2
*D3
 10
655.8035061110636
 20
42.48926256915194
 30
0.0
 11
595.8035041110637
 21
47.43926256915194
 31
0.0
 70
    32
  3
STANDARD
100
AcDbAlignedDimension
 13
535.8035021110636
 23
62.90855611127892
 33
0.0
 14
655.8035061110636
 24
62.90855611127892
 34
0.0
100
AcDbRotatedDimension
  0
DIMENSION
  5
C97
330
2
100
AcDbEntity
  8
SUNPO
100
AcDbDimension
  2
*D4
 10
670.8035061110637
 20
24.48413107043609
 30
0.0
 11
595.8035036110636
 21
29.43413107043609
 31
0.0
 70
    32
  3
STANDARD
100
AcDbAlignedDimension
 13
520.8035011110637
 23
67.90855611127892
 33
0.0
 14
670.8035061110637
 24
67.90855611127892
 34
0.0
100
AcDbRotatedDimension
  0
DIMENSION
  5
C98
330
2
100
AcDbEntity
  8
SUNPO
100
AcDbDimension
  2
*D5
 10
715.8035061110637
 20
326.8984654179682
 30
0.0
 11
618.3035036110636
 21
331.8484654179682
 31
0.0
 70
    32
  3
STANDARD
100
AcDbAlignedDimension
 13
520.8035011110637
 23
83.79073511127893
 33
0.0
 14
715.8035061110637
 24
223.9085631112789
 34
0.0
100
AcDbRotatedDimension
  0
DIMENSION
  5
C9E
330
2
100
AcDbEntity
  8
SUNPO
100
AcDbDimension
  2
*D6
 10
520.8035011110637
 20
308.911737144982
 30
0.0
 11
558.3034996110637
 21
313.8617371449819
 31
0.0
 70
    32
  3
STANDARD
100
AcDbAlignedDimension
 13
595.8034981110637
 23
282.9085631112789
 33
0.0
 14
520.8035011110637
 24
83.79073511127893
 34
0.0
100
AcDbRotatedDimension
  0
DIMENSION
  5
C9F
330
2
100
AcDbEntity
  8
SUNPO
100
AcDbDimension
  2
*D7
 10
461.2156089183918
 20
308.911737144982
 30
0.0
 11
423.2156089183918
 21
313.8617371449819
 31
0.0
 70
    32
  3
STANDARD
100
AcDbAlignedDimension
 13
385.2156089183919
 23
282.9085631112789
 33
0.0
 14
461.2156089183918
 24
236.2141211112789
 34
0.0
100
AcDbRotatedDimension
  0
DIMENSION
  5
CA0
330
2
100
AcDbEntity
  8
SUNPO
100
AcDbDimension
  2
*D8
 10
242.7156089183918
 20
308.911737144982
 30
0.0
 11
269.9656089183918
 21
313.8617371449819
 31
0.0
 70
    32
  3
STANDARD
100
AcDbAlignedDimension
 13
297.2156089183918
 23
226.9085631112789
 33
0.0
 14
242.7156089183918
 24
194.9085631112789
 34
0.0
100
AcDbRotatedDimension
  0
DIMENSION
  5
CA1
330
2
100
AcDbEntity
  8
SUNPO
100
AcDbDimension
  2
*D9
 10
297.2156089183918
 20
308.911737144982
 30
0.0
 11
341.2156089183919
 21
313.8617371449819
 31
0.0
 70
    32
  1
<>
  3
STANDARD
100
AcDbAlignedDimension
 13
385.2156089183919
 23
282.9085631112789
 33
0.0
 14
297.2156089183918
 24
226.9085631112789
 34
0.0
100
AcDbRotatedDimension
1001
ACAD
1000
DSTYLE
1002
{
1070
   271
1070
     2
1002
}
  0
DIMENSION
  5
CA2
330
2
100
AcDbEntity
  8
SUNPO
100
AcDbDimension
  2
*D10
 10
66.71561291839193
 20
308.911737144982
 30
0.0
 11
154.7156109183918
 21
313.8617371449819
 31
0.0
 70
    32
  3
STANDARD
100
AcDbAlignedDimension
 13
242.7156089183918
 23
194.9085631112789
 33
0.0
 14
66.71561291839191
 24
191.9085631112789
 34
0.0
100
AcDbRotatedDimension
  0
DIMENSION
  5
CA3
330
2
100
AcDbEntity
  8
SUNPO
100
AcDbDimension
  2
*D11
 10
461.2156089183918
 20
326.8984654179682
 30
0.0
 11
263.9656109183918
 21
331.8484654179682
 31
0.0
 70
    32
  3
STANDARD
100
AcDbAlignedDimension
 13
66.71561291839191
 23
191.9085631112789
 33
0.0
 14
461.2156089183918
 24
236.2141211112789
 34
0.0
100
AcDbRotatedDimension
  0
DIMENSION
  5
CAB
330
2
100
AcDbEntity
  8
SUNPO
100
AcDbDimension
  2
*D12
 10
42.63872743391909
 20
196.9085631112789
 30
0.0
 11
37.68872743391904
 21
149.9085616112789
 31
0.0
 70
    32
  3
STANDARD
100
AcDbAlignedDimension
 13
71.71558291839045
 23
102.9085601112788
 33
0.0
 14
71.71558291839045
 24
196.9085631112789
 34
0.0
 50
90.0
100
AcDbRotatedDimension
  0
DIMENSION
  5
CCD
330
2
100
AcDbEntity
  8
SUNPO
100
AcDbDimension
  2
*D13
 10
486.9167643890601
 20
272.9085631112789
 30
0.0
 11
481.9667643890601
 21
170.408565111279
 31
0.0
 70
    32
  3
STANDARD
100
AcDbAlignedDimension
 13
461.2156089183918
 23
67.90856711127898
 33
0.0
 14
411.7189959183918
 24
272.9085631112789
 34
0.0
 50
90.0
100
AcDbRotatedDimension
  0
DIMENSION
  5
CD7
330
2
100
AcDbEntity
  8
SUNPO
100
AcDbDimension
  2
*D14
 10
432.7156089183917
 20
42.48927156915215
 30
0.0
 11
385.2156089183918
 21
47.43927156915215
 31
0.0
 70
    32
  3
STANDARD
100
AcDbAlignedDimension
 13
337.7156089183918
 23
62.90856711127901
 33
0.0
 14
432.7156089183917
 24
62.90856711127898
 34
0.0
100
AcDbRotatedDimension
  0
DIMENSION
  5
CD8
330
2
100
AcDbEntity
  8
SUNPO
100
AcDbDimension
  2
*D15
 10
309.2156089183918
 20
24.48414007043629
 30
0.0
 11
385.2156089183918
 21
29.43414007043629
 31
0.0
 70
    32
  3
STANDARD
100
AcDbAlignedDimension
 13
461.2156089183918
 23
67.90856711127898
 33
0.0
 14
309.2156089183918
 24
67.90856711127898
 34
0.0
100
AcDbRotatedDimension
  0
LEADER
  5
CE7
330
2
100
AcDbEntity
  8
SUNPO
100
AcDbLeader
  3
STANDARD
 74
     0
 40
5.4
 41
3.599999999999999
 76
     3
 10
432.7156089183918
 20
67.90856711127898
 30
0.0
 10
472.729660172855
 20
35.09048617001235
 30
0.0
 10
502.6005671646894
 20
35.09048617001235
 30
0.0
1001
ACAD
1000
DSTYLE
1002
{
1070
     5
1000

1070
    77
1070
     1
1070
   147
1040
0.75
1002
}
  0
TEXT
  5
CE8
330
2
100
AcDbEntity
  8
SUNPO
100
AcDbText
 10
475.6600422931135
 20
37.34048617001235
 30
0.0
 40
5.4
  1
4-%%C13
100
AcDbText
  0
DIMENSION
  5
D05
330
2
100
AcDbEntity
  8
SUNPO
100
AcDbDimension
  2
*D16
 10
322.5511058826518
 20
149.9085631112789
 30
0.0
 11
317.6011058826518
 21
178.908563111279
 31
0.0
 70
    32
  3
STANDARD
100
AcDbAlignedDimension
 13
330.1432218726056
 23
207.9085631112789
 33
0.0
 14
342.1019609183918
 24
149.9085631112789
 34
0.0
 50
90.0
100
AcDbRotatedDimension
  0
DIMENSION
  5
D8B
330
2
100
AcDbEntity
  8
SUNPO
100
AcDbDimension
  2
*D17
 10
715.8035061110637
 20
290.6976510878869
 30
0.0
 11
688.3035061110637
 21
295.6476510878869
 31
0.0
 70
    32
  3
STANDARD
100
AcDbAlignedDimension
 13
660.8035061110637
 23
225.4085631112789
 33
0.0
 14
715.8035061110637
 24
223.9085631112789
 34
0.0
100
AcDbRotatedDimension
  0
DIMENSION
  5
D8C
330
2
100
AcDbEntity
  8
SUNPO
100
AcDbDimension
  2
*D18
 10
715.8035061110637
 20
42.48926256915194
 30
0.0
 11
685.8035061110637
 21
47.43926256915194
 31
0.0
 70
    32
  3
STANDARD
100
AcDbAlignedDimension
 13
655.8035061110636
 23
62.90855611127892
 33
0.0
 14
715.8035061110637
 24
191.9085631112789
 34
0.0
100
AcDbRotatedDimension
  0
DIMENSION
  5
D8D
330
2
100
AcDbEntity
  8
SUNPO
100
AcDbDimension
  2
*D19
 10
756.8957014783535
 20
67.9085561112789
 30
0.0
 11
751.9457014783535
 21
137.908559611279
 31
0.0
 70
    32
  3
STANDARD
100
AcDbAlignedDimension
 13
725.8035061110637
 23
207.9085631112788
 33
0.0
 14
670.8035061110637
 24
67.90855611127892
 34
0.0
 50
90.0
100
AcDbRotatedDimension
  0
DIMENSION
  5
D8E
330
2
100
AcDbEntity
  8
SUNPO
100
AcDbDimension
  2
*D20
 10
695.621446516401
 20
85.9085561112789
 30
0.0
 11
695.621446516401
 21
75.40855611127904
 31
0.0
 70
   160
  3
STANDARD
100
AcDbAlignedDimension
 13
670.8035061110637
 23
67.9085561112789
 33
0.0
 14
668.3035061110636
 24
85.90855611127892
 34
0.0
 50
90.0
100
AcDbRotatedDimension
  0
DIMENSION
  5
DAC
330
2
100
AcDbEntity
  8
SUNPO
100
AcDbDimension
  2
*D21
 10
715.8035061110637
 20
272.8088175366235
 30
0.0
 11
690.8035061110637
 21
277.7588175366235
 31
0.0
 70
    32
  3
STANDARD
100
AcDbAlignedDimension
 13
665.8035061110637
 23
207.9085631112789
 33
0.0
 14
715.8035061110637
 24
223.9085631112789
 34
0.0
100
AcDbRotatedDimension
  0
DIMENSION
  5
DB7
330
2
100
AcDbEntity
  8
SUNPO
100
AcDbDimension
  2
*D22
 10
738.838847372131
 20
223.9085631112789
 30
0.0
 11
738.838847372131
 21
243.258563111279
 31
0.0
 70
   160
  1
%%c<>h6
  3
STANDARD
100
AcDbAlignedDimension
 13
715.8035061110637
 23
191.9085631112789
 33
0.0
 14
715.8035061110637
 24
223.9085631112789
 34
0.0
 50
90.0
100
AcDbRotatedDimension
  0
ARC
  5
15A7
330
2
100
AcDbEntity
  8
0
100
AcDbCircle
 10
595.8034981110637
 20
162.9085561112789
 30
0.0
 40
63.5
100
AcDbArc
 50
330.0133473936955
 51
12.47825543178415
  0
ARC
  5
15A8
330
2
100
AcDbEntity
  8
0
100
AcDbCircle
 10
595.8034981110637
 20
162.9085561112789
 30
0.0
 40
63.5
100
AcDbArc
 50
167.5216944567999
 51
209.9866742701368
  0
DIMENSION
  5
15A9
330
2
100
AcDbEntity
  8
SUNPO
100
AcDbDimension
  2
*D25
 10
657.7902485726086
 20
176.688714572565
 30
0.0
 11
617.7194298728196
 21
167.7806458765116
 31
0.0
 70
   163
  3
STANDARD
100
AcDbDiametricDimension
 15
533.8167476495184
 25
149.1283976499927
 35
0.0
 40
0.0
1001
ACAD
1000
DSTYLE
1002
{
1070
   287
1070
     4
1070
   279
1070
     1
1070
   288
1070
     1
1002
}
  0
DIMENSION
  5
15CF
330
2
100
AcDbEntity
  8
SUNPO
100
AcDbDimension
  2
*D26
 10
271.388291646116
 20
149.9085631112789
 30
0.0
 11
266.438291646116
 21
156.4085631112789
 31
0.0
 70
    32
  3
STANDARD
100
AcDbAlignedDimension
 13
271.388291646116
 23
162.9085631112789
 33
0.0
 14
271.388291646116
 24
149.9085631112789
 34
0.0
 50
90.0
100
AcDbRotatedDimension
  0
LEADER
  5
1C81
330
2
100
AcDbEntity
  8
SUNPO
100
AcDbLeader
  3
STANDARD
 74
     0
 40
3.6
 41
2.399999999999999
 76
     3
 10
116.4656049183918
 20
173.687967111279
 30
0.0
 10
145.319342882871
 20
66.28292659157302
 30
0.0
 10
231.9516347206245
 20
66.28292659157302
 30
0.0
1001
ACAD
1000
DSTYLE
1002
{
1070
     5
1000

1002
}
  0
TEXT
  5
1C82
330
2
100
AcDbEntity
  8
SUNPO
100
AcDbText
 10
149.9026710839298
 20
67.78292659157301
 30
0.0
 40
5.4
  1
ブレーキリード線長さ300
100
AcDbText
  0
LINE
  5
2288
330
2
100
AcDbEntity
  8
0
100
AcDbLine
 10
1146.456794812055
 20
226.4085611112789
 30
0.0
 11
1146.456794812055
 21
198.4085631112789
 31
0.0
  0
LINE
  5
2289
330
2
100
AcDbEntity
  8
0
100
AcDbLine
 10
1096.456787812055
 20
226.4085611112789
 30
0.0
 11
1096.456787812055
 21
198.4085631112789
 31
0.0
  0
LINE
  5
228A
330
2
100
AcDbEntity
  8
CENTER
100
AcDbLine
 10
1121.456787812055
 20
186.7148621112789
 30
0.0
 11
1121.456787812055
 21
237.7960611112789
 31
0.0
  0
LINE
  5
228C
330
2
100
AcDbEntity
  8
0
100
AcDbLine
 10
1146.456794812055
 20
198.4085631112789
 30
0.0
 11
1096.456787812055
 21
198.4085631112789
 31
0.0
  0
LINE
  5
228D
330
2
100
AcDbEntity
  8
0
100
AcDbLine
 10
1144.956794812056
 20
196.4085631112789
 30
0.0
 11
1098.456787812055
 21
196.4085631112789
 31
0.0
  0
LINE
  5
228E
330
2
100
AcDbEntity
  8
0
100
AcDbLine
 10
1098.956787812055
 20
196.4085631112789
 30
0.0
 11
1098.956787812055
 21
194.9085631112789
 31
0.0
  0
LINE
  5
228F
330
2
100
AcDbEntity
  8
0
100
AcDbLine
 10
1098.456787812055
 20
196.4085631112789
 30
0.0
 11
1096.456787812055
 21
198.4085631112789
 31
0.0
  0
LINE
  5
2290
330
2
100
AcDbEntity
  8
0
100
AcDbLine
 10
1146.456794812055
 20
198.4085631112789
 30
0.0
 11
1144.456794812055
 21
196.4085631112789
 31
0.0
  0
LINE
  5
2291
330
2
100
AcDbEntity
  8
0
100
AcDbLine
 10
1144.956794812056
 20
196.4085631112789
 30
0.0
 11
1144.956794812056
 21
194.9085631112789
 31
0.0
  0
LINE
  5
2292
330
2
100
AcDbEntity
  8
0
100
AcDbLine
 10
1101.294696628081
 20
227.4085611112789
 30
0.0
 11
1145.456787812055
 21
227.4085611112789
 31
0.0
  0
LINE
  5
2293
330
2
100
AcDbEntity
  8
0
100
AcDbLine
 10
1103.956788240626
 20
226.4085611112789
 30
0.0
 11
1146.456794812055
 21
226.4085611112789
 31
0.0
  0
LINE
  5
2294
330
2
100
AcDbEntity
  8
0
100
AcDbLine
 10
1148.456794812056
 20
208.4085631112789
 30
0.0
 11
1096.456787812055
 21
208.4085631112789
 31
0.0
  0
LINE
  5
2295
330
2
100
AcDbEntity
  8
CENTER
100
AcDbLine
 10
1159.400543812056
 20
217.9085611112788
 30
0.0
 11
1087.504484848317
 21
217.9085611112788
 31
0.0
  0
LINE
  5
2296
330
2
100
AcDbEntity
  8
0
100
AcDbLine
 10
1104.456788240626
 20
227.4085611112787
 30
0.0
 11
1103.956788240626
 21
226.9085611112787
 31
0.0
  0
LINE
  5
2297
330
2
100
AcDbEntity
  8
0
100
AcDbLine
 10
1103.956788240626
 20
226.9085611112787
 30
0.0
 11
1102.901765201676
 21
226.9085611112787
 31
0.0
  0
ARC
  5
2298
330
2
100
AcDbEntity
  8
0
100
AcDbCircle
 10
1102.063798565648
 20
225.9146738355251
 30
0.0
 40
1.3
100
AcDbArc
 50
5.000000000000026
 51
74.11914999172198
  0
ARC
  5
2299
330
2
100
AcDbEntity
  8
0
100
AcDbCircle
 10
1099.956787812055
 20
218.5085611112788
 30
0.0
 40
9.0
100
AcDbArc
 50
74.11914999172198
 51
105.880850008278
  0
LINE
  5
229A
330
2
100
AcDbEntity
  8
0
100
AcDbLine
 10
1097.927047988891
 20
227.0610026486564
 30
0.0
 11
1097.906787812055
 21
227.2719793941179
 31
0.0
  0
LINE
  5
229B
330
2
100
AcDbEntity
  8
0
100
AcDbLine
 10
1097.456787812055
 20
227.4085611112789
 30
0.0
 11
1098.61887899603
 21
227.4085611112789
 31
0.0
  0
LINE
  5
229C
330
2
100
AcDbEntity
  8
0
100
AcDbLine
 10
1101.98652763522
 20
227.0610026486564
 30
0.0
 11
1102.006787812056
 21
227.2719793941179
 31
0.0
  0
LINE
  5
229D
330
2
100
AcDbEntity
  8
0
100
AcDbLine
 10
1100.24428781251
 20
225.9915611112788
 30
0.0
 11
1099.6692878116
 21
225.9915611112788
 31
0.0
  0
SPLINE
  5
229E
330
2
100
AcDbEntity
  8
0
100
AcDbSpline
210
0.0
220
0.0
230
1.0
 70
     8
 71
     3
 72
    11
 73
     7
 74
     0
 42
0.0000000001
 43
0.0000000001
 40
0.0
 40
0.0
 40
0.0
 40
0.0
 40
0.4601364636755307
 40
1.04988694485363
 40
1.713742833862792
 40
2.320347933405154
 40
2.320347933405154
 40
2.320347933405154
 40
2.320347933405179
 10
1099.6692878116
 20
225.9915611112788
 30
0.0
 10
1099.646870154493
 20
226.1465845509587
 30
0.0
 10
1099.595720099259
 20
226.5002993688762
 30
0.0
 10
1099.159834937726
 20
226.9250270404779
 30
0.0
 10
1098.554784222718
 20
227.1442142204437
 30
0.0
 10
1098.129599598542
 20
227.075222920833
 30
0.0
 10
1097.927047988891
 20
227.0610026486564
 30
0.0
  0
SPLINE
  5
229F
330
2
100
AcDbEntity
  8
0
100
AcDbSpline
210
0.0
220
0.0
230
1.0
 70
     8
 71
     3
 72
    11
 73
     7
 74
     0
 42
0.0000000001
 43
0.0000000001
 40
0.0
 40
0.0
 40
0.0
 40
0.0
 40
0.4601364636755307
 40
1.04988694485363
 40
1.713742833862792
 40
2.320347933405154
 40
2.320347933405154
 40
2.320347933405154
 40
2.320347933405179
 10
1100.24428781251
 20
225.9915611112788
 30
0.0
 10
1100.266705469618
 20
226.1465845509587
 30
0.0
 10
1100.317855524852
 20
226.5002993688762
 30
0.0
 10
1100.753740686385
 20
226.9250270404779
 30
0.0
 10
1101.358791401393
 20
227.1442142204437
 30
0.0
 10
1101.783976025568
 20
227.075222920833
 30
0.0
 10
1101.98652763522
 20
227.0610026486564
 30
0.0
  0
LINE
  5
22A0
330
2
100
AcDbEntity
  8
0
100
AcDbLine
 10
1103.456787812055
 20
224.9085611112788
 30
0.0
 11
1103.358851673168
 21
226.027976301097
 31
0.0
  0
LINE
  5
22A1
330
2
100
AcDbEntity
  8
0
100
AcDbLine
 10
1103.956788240626
 20
224.9085611112787
 30
0.0
 11
1103.956788240626
 21
226.9085611112788
 31
0.0
  0
LINE
  5
22A2
330
2
100
AcDbEntity
  8
0
100
AcDbLine
 10
1096.456787812055
 20
224.9085611112788
 30
0.0
 11
1096.554723950943
 21
226.027976301097
 31
0.0
  0
LINE
  5
22A3
330
2
100
AcDbEntity
  8
0
100
AcDbLine
 10
1103.956788240626
 20
224.9085611112787
 30
0.0
 11
1096.456788240626
 21
224.9085611112788
 31
0.0
  0
ARC
  5
22A4
330
2
100
AcDbEntity
  8
0
100
AcDbCircle
 10
1097.849777058462
 20
225.9146738355251
 30
0.0
 40
1.3
100
AcDbArc
 50
105.880850008278
 51
174.9999999999999
  0
LINE
  5
22A5
330
2
100
AcDbEntity
  8
0
100
AcDbLine
 10
1096.456787812055
 20
226.4085611112789
 30
0.0
 11
1097.456787812055
 21
227.4085611112789
 31
0.0
  0
LINE
  5
22A6
330
2
100
AcDbEntity
  8
0
100
AcDbLine
 10
1148.456779812055
 20
224.4085611112789
 30
0.0
 11
1148.456794812056
 21
208.4085631112789
 31
0.0
  0
LINE
  5
22A7
330
2
100
AcDbEntity
  8
0
100
AcDbLine
 10
1151.956794812056
 20
213.9085611112789
 30
0.0
 11
1148.456794812056
 21
212.4085611112789
 31
0.0
  0
LINE
  5
22A8
330
2
100
AcDbEntity
  8
0
100
AcDbLine
 10
1151.956779812055
 20
221.9085611112789
 30
0.0
 11
1148.456779812055
 21
223.4085611112789
 31
0.0
  0
LINE
  5
22A9
330
2
100
AcDbEntity
  8
0
100
AcDbLine
 10
1151.956779812055
 20
221.9085611112789
 30
0.0
 11
1151.956779812055
 21
213.9085611112789
 31
0.0
  0
ARC
  5
22AA
330
2
100
AcDbEntity
  8
0
100
AcDbCircle
 10
1147.456779812055
 20
224.4085611112789
 30
0.0
 40
1.0
100
AcDbArc
 50
0.0
 51
90.0
  0
LINE
  5
22AB
330
2
100
AcDbEntity
  8
0
100
AcDbLine
 10
1147.456794812055
 20
225.4085611112789
 30
0.0
 11
1146.456794812055
 21
225.4085611112789
 31
0.0
  0
LINE
  5
22AC
330
2
100
AcDbEntity
  8
0
100
AcDbLine
 10
1145.456794812055
 20
227.4085611112789
 30
0.0
 11
1146.456794812055
 21
226.4085611112789
 31
0.0
  0
LINE
  5
231E
330
2
100
AcDbEntity
  8
CENTER
100
AcDbLine
 10
139.7156049183918
 20
186.7148621112789
 30
0.0
 11
139.7156049183918
 21
237.7960611112789
 31
0.0
  0
LINE
  5
231F
330
2
100
AcDbEntity
  8
0
100
AcDbLine
 10
114.7155979183917
 20
226.4085611112789
 30
0.0
 11
114.7155979183917
 21
198.4085631112789
 31
0.0
  0
LINE
  5
2320
330
2
100
AcDbEntity
  8
0
100
AcDbLine
 10
164.7156049183918
 20
226.4085611112789
 30
0.0
 11
164.7156049183918
 21
198.4085631112789
 31
0.0
  0
DIMENSION
  5
2321
330
2
100
AcDbEntity
  8
SUNPO
100
AcDbDimension
  2
*D81
 10
187.4541864589864
 20
194.9085631112789
 30
0.0
 11
182.5041864589864
 21
211.1585621112789
 31
0.0
 70
    32
  3
STANDARD
100
AcDbAlignedDimension
 13
163.7156049183918
 23
227.4085611112788
 33
0.0
 14
162.2156049183918
 24
194.9085631112789
 34
0.0
 50
90.0
100
AcDbRotatedDimension
  0
DIMENSION
  5
2322
330
2
100
AcDbEntity
  8
SUNPO
100
AcDbDimension
  2
*D80
 10
66.7156139183919
 20
290.6976510878869
 30
0.0
 11
90.71560591839181
 21
295.6476510878869
 31
0.0
 70
    32
  3
STANDARD
100
AcDbAlignedDimension
 13
114.7155979183917
 23
226.4085611112789
 33
0.0
 14
66.7156139183919
 24
191.9085631112789
 34
0.0
 50
180.0
100
AcDbRotatedDimension
  0
LINE
  5
2323
330
2
100
AcDbEntity
  8
0
100
AcDbLine
 10
109.2156129183917
 20
221.9085611112789
 30
0.0
 11
109.2156129183917
 21
213.9085611112789
 31
0.0
  0
LINE
  5
2324
330
2
100
AcDbEntity
  8
0
100
AcDbLine
 10
112.7156129183918
 20
224.4085611112789
 30
0.0
 11
112.7155979183917
 21
208.4085631112789
 31
0.0
  0
LINE
  5
2325
330
2
100
AcDbEntity
  8
0
100
AcDbLine
 10
116.2155979183917
 20
196.4085631112789
 30
0.0
 11
162.7156049183918
 21
196.4085631112789
 31
0.0
  0
LINE
  5
2326
330
2
100
AcDbEntity
  8
0
100
AcDbLine
 10
112.7155979183917
 20
208.4085631112789
 30
0.0
 11
164.7156049183918
 21
208.4085631112789
 31
0.0
  0
LINE
  5
2327
330
2
100
AcDbEntity
  8
0
100
AcDbLine
 10
114.7155979183917
 20
198.4085631112789
 30
0.0
 11
164.7156049183918
 21
198.4085631112789
 31
0.0
  0
LINE
  5
2328
330
2
100
AcDbEntity
  8
0
100
AcDbLine
 10
109.2155979183917
 20
213.9085611112789
 30
0.0
 11
112.7155979183917
 21
212.4085611112789
 31
0.0
  0
LINE
  5
2329
330
2
100
AcDbEntity
  8
0
100
AcDbLine
 10
116.2155979183917
 20
196.4085631112789
 30
0.0
 11
116.2155979183917
 21
194.9085631112789
 31
0.0
  0
LINE
  5
232A
330
2
100
AcDbEntity
  8
0
100
AcDbLine
 10
114.7155979183917
 20
198.4085631112789
 30
0.0
 11
116.7155979183917
 21
196.4085631112789
 31
0.0
  0
LINE
  5
232B
330
2
100
AcDbEntity
  8
0
100
AcDbLine
 10
162.2156049183918
 20
196.4085631112789
 30
0.0
 11
162.2156049183918
 21
194.9085631112789
 31
0.0
  0
LINE
  5
232C
330
2
100
AcDbEntity
  8
0
100
AcDbLine
 10
162.7156049183918
 20
196.4085631112789
 30
0.0
 11
164.7156049183918
 21
198.4085631112789
 31
0.0
  0
LINE
  5
232D
330
2
100
AcDbEntity
  8
CENTER
100
AcDbLine
 10
101.7718489183918
 20
217.9085611112789
 30
0.0
 11
173.6679078821298
 21
217.9085611112789
 31
0.0
  0
LINE
  5
232E
330
2
100
AcDbEntity
  8
0
100
AcDbLine
 10
122.2155983469629
 20
226.4085611112789
 30
0.0
 11
164.7156119183919
 21
226.4085611112789
 31
0.0
  0
LINE
  5
232F
330
2
100
AcDbEntity
  8
0
100
AcDbLine
 10
119.5535137344172
 20
227.4085611112789
 30
0.0
 11
163.7156049183918
 21
227.4085611112789
 31
0.0
  0
DIMENSION
  5
2330
330
2
100
AcDbEntity
  8
SUNPO
100
AcDbDimension
  2
*D79
 10
114.7155979183917
 20
290.6976510878869
 30
0.0
 11
139.7156014183917
 21
295.6476510878869
 31
0.0
 70
    32
  1
□<>
  3
STANDARD
100
AcDbAlignedDimension
 13
164.7156049183918
 23
226.4085611112788
 33
0.0
 14
114.7155979183917
 24
226.4085611112788
 34
0.0
 50
180.0
100
AcDbRotatedDimension
  0
LINE
  5
2331
330
2
100
AcDbEntity
  8
0
100
AcDbLine
 10
109.2156129183917
 20
221.9085611112789
 30
0.0
 11
112.7156129183918
 21
223.4085611112789
 31
0.0
  0
LINE
  5
2332
330
2
100
AcDbEntity
  8
0
100
AcDbLine
 10
122.2155983469629
 20
224.9085611112788
 30
0.0
 11
122.2155983469629
 21
226.9085611112789
 31
0.0
  0
ARC
  5
2333
330
2
100
AcDbEntity
  8
0
100
AcDbCircle
 10
120.3226156719847
 20
225.9146738355251
 30
0.0
 40
1.3
100
AcDbArc
 50
5.000000000000026
 51
74.11914999172198
  0
LINE
  5
2334
330
2
100
AcDbEntity
  8
0
100
AcDbLine
 10
114.7155979183917
 20
226.4085611112789
 30
0.0
 11
115.7155979183917
 21
227.4085611112789
 31
0.0
  0
LINE
  5
2335
330
2
100
AcDbEntity
  8
0
100
AcDbLine
 10
115.7155983469629
 20
227.4085611112788
 30
0.0
 11
114.7155979183917
 21
226.4085611112789
 31
0.0
  0
ARC
  5
2336
330
2
100
AcDbEntity
  8
0
100
AcDbCircle
 10
116.1085941647988
 20
225.9146738355251
 30
0.0
 40
1.3
100
AcDbArc
 50
105.880850008278
 51
174.9999999999999
  0
SPLINE
  5
2337
330
2
100
AcDbEntity
  8
0
100
AcDbSpline
210
0.0
220
0.0
230
1.0
 70
     8
 71
     3
 72
    11
 73
     7
 74
     0
 42
0.0000000001
 43
0.0000000001
 40
0.0
 40
0.0
 40
0.0
 40
0.0
 40
0.4601364636755307
 40
1.04988694485363
 40
1.713742833862792
 40
2.320347933405154
 40
2.320347933405154
 40
2.320347933405154
 40
2.320347933405179
 10
117.9281049179369
 20
225.9915611112788
 30
0.0
 10
117.9056872608289
 20
226.1465845509587
 30
0.0
 10
117.8545372055957
 20
226.5002993688763
 30
0.0
 10
117.4186520440621
 20
226.9250270404779
 30
0.0
 10
116.8136013290547
 20
227.1442142204438
 30
0.0
 10
116.3884167048788
 20
227.0752229208331
 30
0.0
 10
116.1858650952278
 20
227.0610026486564
 30
0.0
  0
SPLINE
  5
2338
330
2
100
AcDbEntity
  8
0
100
AcDbSpline
210
0.0
220
0.0
230
1.0
 70
     8
 71
     3
 72
    11
 73
     7
 74
     0
 42
0.0000000001
 43
0.0000000001
 40
0.0
 40
0.0
 40
0.0
 40
0.0
 40
0.4601364636755307
 40
1.04988694485363
 40
1.713742833862792
 40
2.320347933405154
 40
2.320347933405154
 40
2.320347933405154
 40
2.320347933405179
 10
118.5031049188469
 20
225.9915611112788
 30
0.0
 10
118.5255225759547
 20
226.1465845509587
 30
0.0
 10
118.576672631188
 20
226.5002993688763
 30
0.0
 10
119.0125577927217
 20
226.9250270404779
 30
0.0
 10
119.617608507729
 20
227.1442142204438
 30
0.0
 10
120.042793131905
 20
227.0752229208331
 30
0.0
 10
120.2453447415559
 20
227.0610026486564
 30
0.0
  0
LINE
  5
2339
330
2
100
AcDbEntity
  8
0
100
AcDbLine
 10
122.2155983469629
 20
224.9085611112788
 30
0.0
 11
114.7155983469628
 21
224.9085611112789
 31
0.0
  0
LINE
  5
233A
330
2
100
AcDbEntity
  8
0
100
AcDbLine
 10
118.5031049188469
 20
225.9915611112788
 30
0.0
 11
117.9281049179369
 21
225.9915611112788
 31
0.0
  0
LINE
  5
233B
330
2
100
AcDbEntity
  8
0
100
AcDbLine
 10
114.7156049183918
 20
224.9085611112789
 30
0.0
 11
114.8135410572797
 21
226.0279763010971
 31
0.0
  0
ARC
  5
233C
330
2
100
AcDbEntity
  8
0
100
AcDbCircle
 10
113.7156129183918
 20
224.4085611112789
 30
0.0
 40
1.0
100
AcDbArc
 50
90.0
 51
180.0
  0
LINE
  5
233D
330
2
100
AcDbEntity
  8
0
100
AcDbLine
 10
113.7155979183917
 20
225.4085611112789
 30
0.0
 11
114.7155979183917
 21
225.4085611112789
 31
0.0
  0
LINE
  5
233E
330
2
100
AcDbEntity
  8
0
100
AcDbLine
 10
121.7156049183918
 20
224.9085611112789
 30
0.0
 11
121.6176687795041
 21
226.0279763010971
 31
0.0
  0
LINE
  5
233F
330
2
100
AcDbEntity
  8
0
100
AcDbLine
 10
122.2155983469629
 20
226.9085611112788
 30
0.0
 11
121.1605823080121
 21
226.9085611112788
 31
0.0
  0
LINE
  5
2340
330
2
100
AcDbEntity
  8
0
100
AcDbLine
 10
120.2453447415559
 20
227.0610026486564
 30
0.0
 11
120.2656049183919
 21
227.2719793941181
 31
0.0
  0
LINE
  5
2341
330
2
100
AcDbEntity
  8
0
100
AcDbLine
 10
115.7155979183917
 20
227.4085611112789
 30
0.0
 11
116.8776961023663
 21
227.4085611112789
 31
0.0
  0
LINE
  5
2342
330
2
100
AcDbEntity
  8
0
100
AcDbLine
 10
116.1858650952278
 20
227.0610026486564
 30
0.0
 11
116.1656049183918
 21
227.2719793941181
 31
0.0
  0
ARC
  5
2343
330
2
100
AcDbEntity
  8
0
100
AcDbCircle
 10
118.2156049183918
 20
218.5085611112788
 30
0.0
 40
9.0
100
AcDbArc
 50
74.11914999172198
 51
105.880850008278
  0
LINE
  5
2344
330
2
100
AcDbEntity
  8
0
100
AcDbLine
 10
122.7155983469629
 20
227.4085611112788
 30
0.0
 11
122.2155983469629
 21
226.9085611112788
 31
0.0
  0
LINE
  5
2345
330
2
100
AcDbEntity
  8
0
100
AcDbLine
 10
163.7156119183919
 20
227.4085611112789
 30
0.0
 11
164.7156119183919
 21
226.4085611112789
 31
0.0
  0
LINE
  5
23C5
330
2
100
AcDbEntity
  8
CENTER
100
AcDbLine
 10
139.7156049183918
 20
501.3557120553866
 30
0.0
 11
139.7156049183918
 21
430.216486111279
 31
0.0
  0
LINE
  5
23C6
330
2
100
AcDbEntity
  8
0
100
AcDbLine
 10
163.3157029183917
 20
443.3664801112789
 30
0.0
 11
163.3157029183917
 21
483.4664861112789
 31
0.0
  0
LINE
  5
23C7
330
2
100
AcDbEntity
  8
0
100
AcDbLine
 10
112.7155979183917
 20
460.4664861112789
 30
0.0
 11
109.2155979183917
 21
463.9664861112789
 31
0.0
  0
LINE
  5
23C8
330
2
100
AcDbEntity
  8
0
100
AcDbLine
 10
112.7155979183917
 20
459.4664861112789
 30
0.0
 11
112.7155979183917
 21
472.4664861112789
 31
0.0
  0
LINE
  5
23C9
330
2
100
AcDbEntity
  8
0
100
AcDbLine
 10
164.7154979183919
 20
488.9664861112789
 30
0.0
 11
164.7154979183917
 21
442.9664861112789
 31
0.0
  0
LINE
  5
23CA
330
2
100
AcDbEntity
  8
0
100
AcDbLine
 10
116.1155919183918
 20
488.5664771112789
 30
0.0
 11
116.1155989183916
 21
448.4664861112789
 31
0.0
  0
LINE
  5
23CB
330
2
100
AcDbEntity
  8
0
100
AcDbLine
 10
114.7155979183917
 20
488.9664861112789
 30
0.0
 11
114.7155979183917
 21
442.9664861112789
 31
0.0
  0
LINE
  5
23CC
330
2
100
AcDbEntity
  8
0
100
AcDbLine
 10
162.3157029183917
 20
442.3664801112789
 30
0.0
 11
122.2155979183917
 21
442.3664801112789
 31
0.0
  0
LINE
  5
23CD
330
2
100
AcDbEntity
  8
0
100
AcDbLine
 10
116.7155979183917
 20
440.966486111279
 30
0.0
 11
162.7154979183917
 21
440.966486111279
 31
0.0
  0
CIRCLE
  5
23CE
330
2
100
AcDbEntity
  8
0
100
AcDbCircle
 10
118.2156279183918
 20
444.466486111279
 30
0.0
 40
3.500000000000028
  0
ARC
  5
23CF
330
2
100
AcDbEntity
  8
0
100
AcDbCircle
 10
118.2156279183918
 20
444.466486111279
 30
0.0
 40
4.0
100
AcDbArc
 50
0.0
 51
90.0
  0
LINE
  5
23D0
330
2
100
AcDbEntity
  8
0
100
AcDbLine
 10
114.7155979183917
 20
442.9664861112789
 30
0.0
 11
116.7155979183917
 21
440.966486111279
 31
0.0
  0
LINE
  5
23D1
330
2
100
AcDbEntity
  8
0
100
AcDbLine
 10
114.7155979183917
 20
442.9664861112789
 30
0.0
 11
116.7155979183917
 21
440.966486111279
 31
0.0
  0
ARC
  5
23D2
330
2
100
AcDbEntity
  8
0
100
AcDbCircle
 10
118.2156279183918
 20
444.466486111279
 30
0.0
 40
2.049999999999998
100
AcDbArc
 50
0.0
 51
8.061960083981649
  0
ARC
  5
23D3
330
2
100
AcDbEntity
  8
0
100
AcDbCircle
 10
118.2156279183918
 20
444.466486111279
 30
0.0
 40
2.049999999999998
100
AcDbArc
 50
351.9380399160183
 51
0.0
  0
ARC
  5
23D4
330
2
100
AcDbEntity
  8
0
100
AcDbCircle
 10
116.1859279183918
 20
442.436786111279
 30
0.0
 40
1.742199999999999
100
AcDbArc
 50
359.9986903345002
 51
90.00130966549322
  0
ARC
  5
23D5
330
2
100
AcDbEntity
  8
0
100
AcDbCircle
 10
118.2156279183918
 20
444.466486111279
 30
0.0
 40
2.049999999999998
100
AcDbArc
 50
261.9380399160178
 51
270.0
  0
ARC
  5
23D6
330
2
100
AcDbEntity
  8
0
100
AcDbCircle
 10
118.2156279183918
 20
444.466486111279
 30
0.0
 40
2.049999999999998
100
AcDbArc
 50
90.0
 51
98.06196008398211
  0
LINE
  5
23D7
330
2
100
AcDbEntity
  8
0
100
AcDbLine
 10
118.2156279183918
 20
448.4664861112789
 30
0.0
 11
114.7156279183918
 21
448.4664861112789
 31
0.0
  0
ARC
  5
23D8
330
2
100
AcDbEntity
  8
0
100
AcDbCircle
 10
116.1859279183918
 20
446.4961861112789
 30
0.0
 40
1.742199999999999
100
AcDbArc
 50
269.9986903345002
 51
0.0013096654997424
  0
ARC
  5
23D9
330
2
100
AcDbEntity
  8
0
100
AcDbCircle
 10
118.2156279183918
 20
444.466486111279
 30
0.0
 40
2.049999999999998
100
AcDbArc
 50
171.9380399160183
 51
180.0
  0
ARC
  5
23DA
330
2
100
AcDbEntity
  8
0
100
AcDbCircle
 10
118.2156279183918
 20
444.466486111279
 30
0.0
 40
2.049999999999998
100
AcDbArc
 50
180.0
 51
188.0619600839816
  0
ARC
  5
23DB
330
2
100
AcDbEntity
  8
0
100
AcDbCircle
 10
118.2156279183918
 20
444.466486111279
 30
0.0
 40
2.049999999999998
100
AcDbArc
 50
270.0
 51
278.061960083982
  0
ARC
  5
23DC
330
2
100
AcDbEntity
  8
0
100
AcDbCircle
 10
118.2156279183918
 20
444.466486111279
 30
0.0
 40
2.049999999999998
100
AcDbArc
 50
81.93803991601789
 51
90.0
  0
ARC
  5
23DD
330
2
100
AcDbEntity
  8
0
100
AcDbCircle
 10
120.2453279183919
 20
442.436786111279
 30
0.0
 40
1.742199999999999
100
AcDbArc
 50
89.99869033450025
 51
180.0013096654997
  0
ARC
  5
23DE
330
2
100
AcDbEntity
  8
0
100
AcDbCircle
 10
120.2453279183919
 20
446.4961861112789
 30
0.0
 40
1.742199999999999
100
AcDbArc
 50
179.9986903345002
 51
270.0013096654932
  0
LINE
  5
23DF
330
2
100
AcDbEntity
  8
0
100
AcDbLine
 10
122.2155979183917
 20
444.466486111279
 30
0.0
 11
122.2155979183917
 21
440.9666851112789
 31
0.0
  0
LINE
  5
23E0
330
2
100
AcDbEntity
  8
0
100
AcDbLine
 10
113.7155979183917
 20
458.466486111279
 30
0.0
 11
114.7155979183917
 21
458.466486111279
 31
0.0
  0
ARC
  5
23E1
330
2
100
AcDbEntity
  8
0
100
AcDbCircle
 10
113.7155979183917
 20
459.4664861112789
 30
0.0
 40
1.0
100
AcDbArc
 50
180.0
 51
270.0
  0
LINE
  5
23E2
330
2
100
AcDbEntity
  8
0
100
AcDbLine
 10
164.7154979183917
 20
442.9664861112789
 30
0.0
 11
162.7154979183917
 21
440.966486111279
 31
0.0
  0
LINE
  5
23E3
330
2
100
AcDbEntity
  8
0
100
AcDbLine
 10
164.7154979183917
 20
442.9664861112789
 30
0.0
 11
162.7154979183917
 21
440.966486111279
 31
0.0
  0
LINE
  5
23E4
330
2
100
AcDbEntity
  8
0
100
AcDbLine
 10
164.7156969183918
 20
442.9664861112789
 30
0.0
 11
162.7154979183917
 21
440.966486111279
 31
0.0
  0
LINE
  5
23E5
330
2
100
AcDbEntity
  8
0
100
AcDbLine
 10
162.3157029183917
 20
442.3664801112789
 30
0.0
 11
163.3157029183917
 21
443.3664801112789
 31
0.0
  0
LINE
  5
23E6
330
2
100
AcDbEntity
  8
0
100
AcDbLine
 10
116.7155979183917
 20
490.966486111279
 30
0.0
 11
162.7154979183919
 21
490.966486111279
 31
0.0
  0
LINE
  5
23E7
330
2
100
AcDbEntity
  8
0
100
AcDbLine
 10
117.1155989183916
 20
489.5664771112789
 30
0.0
 11
157.2154979183919
 21
489.5664771112789
 31
0.0
  0
ARC
  5
23E8
330
2
100
AcDbEntity
  8
0
100
AcDbCircle
 10
161.2156969183918
 20
487.466486111279
 30
0.0
 40
4.0
100
AcDbArc
 50
180.0
 51
270.0
  0
LINE
  5
23E9
330
2
100
AcDbEntity
  8
0
100
AcDbLine
 10
109.2155979183917
 20
467.9664861112789
 30
0.0
 11
112.7155979183917
 21
471.4664861112789
 31
0.0
  0
LINE
  5
23EA
330
2
100
AcDbEntity
  8
0
100
AcDbLine
 10
109.2155979183917
 20
467.9664861112789
 30
0.0
 11
109.2155979183917
 21
463.9664861112789
 31
0.0
  0
LINE
  5
23EB
330
2
100
AcDbEntity
  8
0
100
AcDbLine
 10
113.7155979183917
 20
473.4664861112789
 30
0.0
 11
114.7155979183917
 21
473.4664861112789
 31
0.0
  0
ARC
  5
23EC
330
2
100
AcDbEntity
  8
0
100
AcDbCircle
 10
113.7156129183918
 20
472.4664861112789
 30
0.0
 40
1.0
100
AcDbArc
 50
90.0
 51
180.0
  0
LINE
  5
23ED
330
2
100
AcDbEntity
  8
0
100
AcDbLine
 10
116.1155919183918
 20
488.5664771112789
 30
0.0
 11
117.1155989183916
 21
489.5664771112789
 31
0.0
  0
LINE
  5
23EE
330
2
100
AcDbEntity
  8
0
100
AcDbLine
 10
114.7155979183917
 20
488.9664861112789
 30
0.0
 11
116.7155979183917
 21
490.966486111279
 31
0.0
  0
ARC
  5
23EF
330
2
100
AcDbEntity
  8
0
100
AcDbCircle
 10
163.245396918392
 20
485.4367861112789
 30
0.0
 40
1.742199999999999
100
AcDbArc
 50
89.99869033450025
 51
180.0013096654997
  0
ARC
  5
23F0
330
2
100
AcDbEntity
  8
0
100
AcDbCircle
 10
159.1859969183919
 20
485.4367861112789
 30
0.0
 40
1.742199999999999
100
AcDbArc
 50
359.9986903345002
 51
90.00130966549322
  0
CIRCLE
  5
23F1
330
2
100
AcDbEntity
  8
0
100
AcDbCircle
 10
161.2156969183918
 20
487.466486111279
 30
0.0
 40
3.500000000000028
  0
ARC
  5
23F2
330
2
100
AcDbEntity
  8
0
100
AcDbCircle
 10
161.2156969183918
 20
487.466486111279
 30
0.0
 40
2.049999999999998
100
AcDbArc
 50
261.9380399160178
 51
270.0
  0
ARC
  5
23F3
330
2
100
AcDbEntity
  8
0
100
AcDbCircle
 10
161.2156969183918
 20
487.466486111279
 30
0.0
 40
2.049999999999998
100
AcDbArc
 50
270.0
 51
278.061960083982
  0
LINE
  5
23F4
330
2
100
AcDbEntity
  8
0
100
AcDbLine
 10
161.2154979183919
 20
483.4664861112789
 30
0.0
 11
164.7154979183919
 21
483.4664861112789
 31
0.0
  0
ARC
  5
23F5
330
2
100
AcDbEntity
  8
0
100
AcDbCircle
 10
161.2156969183918
 20
487.466486111279
 30
0.0
 40
2.049999999999998
100
AcDbArc
 50
180.0
 51
188.0619600839816
  0
ARC
  5
23F6
330
2
100
AcDbEntity
  8
0
100
AcDbCircle
 10
159.1859969183919
 20
489.4961861112789
 30
0.0
 40
1.742199999999999
100
AcDbArc
 50
269.9986903345002
 51
0.0013096654997424
  0
ARC
  5
23F7
330
2
100
AcDbEntity
  8
0
100
AcDbCircle
 10
161.2156969183918
 20
487.466486111279
 30
0.0
 40
2.049999999999998
100
AcDbArc
 50
90.0
 51
98.06196008398211
  0
ARC
  5
23F8
330
2
100
AcDbEntity
  8
0
100
AcDbCircle
 10
161.2156969183918
 20
487.466486111279
 30
0.0
 40
2.049999999999998
100
AcDbArc
 50
81.93803991601789
 51
90.0
  0
ARC
  5
23F9
330
2
100
AcDbEntity
  8
0
100
AcDbCircle
 10
161.2156969183918
 20
487.466486111279
 30
0.0
 40
2.049999999999998
100
AcDbArc
 50
0.0
 51
8.061960083981649
  0
ARC
  5
23FA
330
2
100
AcDbEntity
  8
0
100
AcDbCircle
 10
161.2156969183918
 20
487.466486111279
 30
0.0
 40
2.049999999999998
100
AcDbArc
 50
351.9380399160183
 51
0.0
  0
ARC
  5
23FB
330
2
100
AcDbEntity
  8
0
100
AcDbCircle
 10
163.245396918392
 20
489.4961861112789
 30
0.0
 40
1.742199999999999
100
AcDbArc
 50
179.9986903345002
 51
270.0013096654932
  0
ARC
  5
23FC
330
2
100
AcDbEntity
  8
0
100
AcDbCircle
 10
161.2156969183918
 20
487.466486111279
 30
0.0
 40
2.049999999999998
100
AcDbArc
 50
171.9380399160183
 51
180.0
  0
LINE
  5
23FD
330
2
100
AcDbEntity
  8
0
100
AcDbLine
 10
157.2154979183919
 20
487.4664861112789
 30
0.0
 11
157.2154979183919
 21
490.966486111279
 31
0.0
  0
LINE
  5
23FE
330
2
100
AcDbEntity
  8
0
100
AcDbLine
 10
164.7154979183919
 20
488.9664861112789
 30
0.0
 11
162.7154979183919
 21
490.966486111279
 31
0.0
  0
LINE
  5
23FF
330
2
100
AcDbEntity
  8
0
100
AcDbLine
 10
162.7154979183919
 20
490.966486111279
 30
0.0
 11
164.7154979183919
 21
488.9664861112789
 31
0.0
  0
LINE
  5
2400
330
2
100
AcDbEntity
  8
0
100
AcDbLine
 10
114.2155789183917
 20
458.466486111279
 30
0.0
 11
114.2155789183916
 21
418.9664861112789
 31
0.0
  0
ENDSEC
  0
SECTION
  2
OBJECTS
  0
DICTIONARY
  5
7
330
0
100
AcDbDictionary
  3
ACAD_GROUP
350
75
  3
ACAD_LAYOUT
350
61
  3
ACAD_MLINESTYLE
350
76
  3
ACAD_PLOTSETTINGS
350
77
  3
ACAD_PLOTSTYLENAME
350
6
  3
ACADDIM
350
480
  3
ACDBHEADERROUNDTRIPXREC
350
2485
  3
ACDBVARIABLEDICTIONARY
350
102
  3
DWGPROPS
350
3D2
  0
DICTIONARY
  5
24A6
330
2
100
AcDbDictionary
280
     1
  3
ACAD_LAYOUTSELFREF
360
24A7
  0
DICTIONARY
  5
24AD
330
247F
100
AcDbDictionary
280
     1
  3
ACAD_LAYOUTSELFREF
360
24AE
  0
DICTIONARY
  5
75
102
{ACAD_REACTORS
330
7
102
}
330
7
100
AcDbDictionary
  0
DICTIONARY
  5
61
102
{ACAD_REACTORS
330
7
102
}
330
7
100
AcDbDictionary
  0
DICTIONARY
  5
76
102
{ACAD_REACTORS
330
7
102
}
330
7
100
AcDbDictionary
  3
STANDARD
350
78
  0
DICTIONARY
  5
77
102
{ACAD_REACTORS
330
7
102
}
330
7
100
AcDbDictionary
  0
ACDBDICTIONARYWDFLT
  5
6
102
{ACAD_REACTORS
330
7
102
}
330
7
100
AcDbDictionary
281
     1
  3
Normal
350
5
100
AcDbDictionaryWithDefault
340
5
  0
XRECORD
  5
480
102
{ACAD_REACTORS
330
7
102
}
330
7
100
AcDbXrecord
 90
   990106
  3

 60
     0
 61
     0
 62
     1
 63
     3
 64
     1
 65
     0
 66
     0
 67
     3
 68
     1
 69
     0
 70
     0
 71
     0
 72
     0
 40
0.0
170
     2
340
0
  0
DICTIONARY
  5
2485
102
{ACAD_REACTORS
330
7
102
}
330
7
100
AcDbDictionary
  3
CEPSNTYPE
350
248F
  3
DIMSTYLEDATA
350
2493
  3
FINGERPRINTGUID
350
2490
  3
HYPERLINKBASE
350
2488
  3
INSUNITS
350
248E
  3
LAYOUTDICT
350
248A
  3
LWETCUNION
350
248D
  3
PLOTSETDICT
350
248B
  3
PLOTSTYLNAMDICT
350
248C
  3
PSVPSCALE
350
2492
  3
PUCSBASE
350
2496
  3
PUCSORGBACK
350
249C
  3
PUCSORGBOTTOM
350
2498
  3
PUCSORGFRONT
350
249B
  3
PUCSORGLEFT
350
2499
  3
PUCSORGRIGHT
350
249A
  3
PUCSORGTOP
350
2497
  3
PUCSORTHOREF
350
2494
  3
PUCSORTHOVIEW
350
2495
  3
STYLESHEET
350
2489
  3
TSTACKALIGN
350
2486
  3
TSTACKSIZE
350
2487
  3
UCSBASE
350
249F
  3
UCSORGBACK
350
24A5
  3
UCSORGBOTTOM
350
24A1
  3
UCSORGFRONT
350
24A4
  3
UCSORGLEFT
350
24A2
  3
UCSORGRIGHT
350
24A3
  3
UCSORGTOP
350
24A0
  3
UCSORTHOREF
350
249D
  3
UCSORTHOVIEW
350
249E
  3
VERSIONGUID
350
2491
  0
DICTIONARY
  5
102
102
{ACAD_REACTORS
330
7
102
}
330
7
100
AcDbDictionary
  3
DIMASSOC
350
103
  0
XRECORD
  5
3D2
102
{ACAD_REACTORS
330
7
102
}
330
7
100
AcDbXrecord
  1
DWGPROPS COOKIE
  2

  3

  4

  6

  7

  8

  9

300
=
301
=
302
=
303
=
304
=
305
=
306
=
307
=
308
=
309
=
 40
0.5353330671296296
 41
2452052.431989363
 42
2453406.550756377
  1

 90
        0
  0
XRECORD
  5
24A7
102
{ACAD_REACTORS
330
24A6
102
}
330
24A6
100
AcDbXrecord
340
2
  0
XRECORD
  5
24AE
102
{ACAD_REACTORS
330
24AD
102
}
330
24AD
100
AcDbXrecord
340
247F
  0
MLINESTYLE
  5
78
102
{ACAD_REACTORS
330
76
102
}
330
76
100
AcDbMlineStyle
  2
STANDARD
 70
     0
  3

 62
     0
 51
90.0
 52
90.0
 71
     2
 49
0.5
 62
   256
  6
BYLAYER
 49
-0.5
 62
   256
  6
BYLAYER
  0
ACDBPLACEHOLDER
  5
5
102
{ACAD_REACTORS
330
6
102
}
330
6
100
AcDbPlaceHolder
280
     0
  0
XRECORD
  5
248F
102
{ACAD_REACTORS
330
2485
102
}
330
2485
100
AcDbXrecord
 90
        0
  0
XRECORD
  5
2493
102
{ACAD_REACTORS
330
2485
102
}
330
2485
100
AcDbXrecord
1000
DSTYLE
1002
{
1070
   179
 70
     2
1070
   277
 70
     6
1002
}
  0
XRECORD
  5
2490
102
{ACAD_REACTORS
330
2485
102
}
330
2485
100
AcDbXrecord
  1
{6385560B-F4B1-4644-A7C2-A3E32AC3D232}
  0
XRECORD
  5
2488
102
{ACAD_REACTORS
330
2485
102
}
330
2485
100
AcDbXrecord
  1

  0
XRECORD
  5
248E
102
{ACAD_REACTORS
330
2485
102
}
330
2485
100
AcDbXrecord
 90
        0
  0
XRECORD
  5
248A
102
{ACAD_REACTORS
330
2485
102
}
330
2485
100
AcDbXrecord
340
61
  0
XRECORD
  5
248D
102
{ACAD_REACTORS
330
2485
102
}
330
2485
100
AcDbXrecord
 90
    10781
  0
XRECORD
  5
248B
102
{ACAD_REACTORS
330
2485
102
}
330
2485
100
AcDbXrecord
340
77
  0
XRECORD
  5
248C
102
{ACAD_REACTORS
330
2485
102
}
330
2485
100
AcDbXrecord
340
6
  0
XRECORD
  5
2492
102
{ACAD_REACTORS
330
2485
102
}
330
2485
100
AcDbXrecord
 40
0.0
  0
XRECORD
  5
2496
102
{ACAD_REACTORS
330
2485
102
}
330
2485
100
AcDbXrecord
340
0
  0
XRECORD
  5
249C
102
{ACAD_REACTORS
330
2485
102
}
330
2485
100
AcDbXrecord
 10
0.0
 20
0.0
 30
0.0
  0
XRECORD
  5
2498
102
{ACAD_REACTORS
330
2485
102
}
330
2485
100
AcDbXrecord
 10
0.0
 20
0.0
 30
0.0
  0
XRECORD
  5
249B
102
{ACAD_REACTORS
330
2485
102
}
330
2485
100
AcDbXrecord
 10
0.0
 20
0.0
 30
0.0
  0
XRECORD
  5
2499
102
{ACAD_REACTORS
330
2485
102
}
330
2485
100
AcDbXrecord
 10
0.0
 20
0.0
 30
0.0
  0
XRECORD
  5
249A
102
{ACAD_REACTORS
330
2485
102
}
330
2485
100
AcDbXrecord
 10
0.0
 20
0.0
 30
0.0
  0
XRECORD
  5
2497
102
{ACAD_REACTORS
330
2485
102
}
330
2485
100
AcDbXrecord
 10
0.0
 20
0.0
 30
0.0
  0
XRECORD
  5
2494
102
{ACAD_REACTORS
330
2485
102
}
330
2485
100
AcDbXrecord
340
0
  0
XRECORD
  5
2495
102
{ACAD_REACTORS
330
2485
102
}
330
2485
100
AcDbXrecord
 70
     0
  0
XRECORD
  5
2489
102
{ACAD_REACTORS
330
2485
102
}
330
2485
100
AcDbXrecord
  1
Sekkei.ctb
  0
XRECORD
  5
2486
102
{ACAD_REACTORS
330
2485
102
}
330
2485
100
AcDbXrecord
 90
        1
  0
XRECORD
  5
2487
102
{ACAD_REACTORS
330
2485
102
}
330
2485
100
AcDbXrecord
 90
       70
  0
XRECORD
  5
249F
102
{ACAD_REACTORS
330
2485
102
}
330
2485
100
AcDbXrecord
340
0
  0
XRECORD
  5
24A5
102
{ACAD_REACTORS
330
2485
102
}
330
2485
100
AcDbXrecord
 10
0.0
 20
0.0
 30
0.0
  0
XRECORD
  5
24A1
102
{ACAD_REACTORS
330
2485
102
}
330
2485
100
AcDbXrecord
 10
0.0
 20
0.0
 30
0.0
  0
XRECORD
  5
24A4
102
{ACAD_REACTORS
330
2485
102
}
330
2485
100
AcDbXrecord
 10
0.0
 20
0.0
 30
0.0
  0
XRECORD
  5
24A2
102
{ACAD_REACTORS
330
2485
102
}
330
2485
100
AcDbXrecord
 10
0.0
 20
0.0
 30
0.0
  0
XRECORD
  5
24A3
102
{ACAD_REACTORS
330
2485
102
}
330
2485
100
AcDbXrecord
 10
0.0
 20
0.0
 30
0.0
  0
XRECORD
  5
24A0
102
{ACAD_REACTORS
330
2485
102
}
330
2485
100
AcDbXrecord
 10
0.0
 20
0.0
 30
0.0
  0
XRECORD
  5
249D
102
{ACAD_REACTORS
330
2485
102
}
330
2485
100
AcDbXrecord
340
0
  0
XRECORD
  5
249E
102
{ACAD_REACTORS
330
2485
102
}
330
2485
100
AcDbXrecord
 70
     0
  0
XRECORD
  5
2491
102
{ACAD_REACTORS
330
2485
102
}
330
2485
100
AcDbXrecord
  1
{55BA440A-9FEE-418E-8C75-6DE74F4E012C}
  0
DICTIONARYVAR
  5
103
102
{ACAD_REACTORS
330
102
102
}
330
102
100
DictionaryVariables
280
     0
  1
1
  0
ENDSEC
  0
EOF
